Freezing Completed Batch_Seasons 1+2+Specials_(BD720p_10bit_Smood...

  • Category Anime
  • Type Subbed
  • Language Japanese
  • Total size 4.6 GB
  • Uploaded By smoodflamez
  • Downloads 275
  • Last checked 1 month ago
  • Date uploaded 1 month ago
  • Seeders 10
  • Leechers 5

Infohash : 94E9DDCC4D79BE7A065CD0648EB02FDDCB561592

Title
Freezing
Freezing Vibration

Sources
[Hiryuu]
Doki

Synopsis
Decades into the future, humanity is under siege by an alien race known as the Novas. These inhuman beings leave devastation in their wake whenever they appear, with the efforts to stave them off becoming known as Nova Clashes. Young women known as “Pandoras” and young men known as “Limiters” are implanted with stigmata to give them superhuman powers and are trained in military academies, where they must learn to work together if humanity is to have a chance of surviving.

Freezing tells the story of Kazuya Aoi as he sets out for his first day at the West Genetics military academy, right when a battle royale is being undertaken by the Pandoras. It is here that he mistakes Satellizer el Bridget—a powerful Pandora known as the “Untouchable Queen”—as his deceased sister and embraces her. Though he costs her the match, she finds that his touch doesn’t drive her away and decides to take him as her Limiter. The only question is whether or not their partnership can survive the machinations of their upperclassmen and the impending battle with the Novas…

Information
Type: TV
Episodes: 12
Status: Finished Airing
Aired: Jan 8, 2011 to Apr 7, 2011
Premiered: Winter 2011
Broadcast: Saturdays at 09:30 (JST)
Producers: Media Factory
Licensors: Funimation
Studios: A.C.G.T.
Source: Manga
Genres: Action, Sci-Fi, Harem, Drama, Romance, Ecchi, Martial Arts, Seinen
Duration: 24 min. per ep.
Rating: R+ - Mild Nudity

==========================================================================================

MediaInfo

Video
ID : 1
Format : AVC
Format/Info : Advanced Video Codec
Format profile : High 4:4:4 [email protected]
Format settings : CABAC / 10 Ref Frames
Format settings, CABAC : Yes
Format settings, Reference : 10 frames
Codec ID : V_MPEG4/ISO/AVC
Duration : 23 min 41 s
Bit rate : 988 kb/s
Width : 1 280 pixels
Height : 720 pixels
Display aspect ratio : 16:9
Frame rate mode : Constant
Frame rate : 23.976 (24000/1001) FPS
Chroma subsampling : 4:4:4
Bit depth : 10 bits

Audio
ID : 2
Format : Vorbis
Format settings, Floor : 1
Codec ID : A_VORBIS
Duration : 23 min 42 s
Bit rate mode : Variable
Bit rate : 80.0 kb/s
Channel(s) : 2 channels
Sampling rate : 48.0 kHz
Frame rate : 64.744 FPS (741 SPF)
Compression mode : Lossy
Stream size : 12.8 MiB (7%)
Writing library : libVorbis (Now 100% fewer shells) (20180316 (Now 100% fewer shells))
Default : Yes
Forced : No
Comment : Processed by SoX

Text #1
ID : 3
Format : ASS
Codec ID : S_TEXT/ASS
Codec ID/Info : Advanced Sub Station Alpha
Duration : 23 min 19 s
Bit rate : 780 b/s
Count of elements : 1443
Compression mode : Lossless
Stream size : 133 KiB (0%)
Language : English
Default : No
Forced : No

Screenshots



============================================================================================

Seed As Long As You Can
And Satella-Senpai is Bae <3 <3 <3

Files:

Freezing Completed Batch_(BD720p_10bit_SmoodFlamez) Extras Eyecatches
  • 01-1.png (1.2 MB)
  • 01-2.png (1.5 MB)
  • 02-1.png (1.0 MB)
  • 02-2.png (966.6 KB)
  • 03-1.png (1.0 MB)
  • 03-2.png (1,004.3 KB)
  • 04-1.png (1.0 MB)
  • 04-2.png (975.4 KB)
  • 05-1.png (1.6 MB)
  • 05-2.png (1.5 MB)
  • 06-1.png (1.1 MB)
  • 06-2.png (1.0 MB)
  • 07-1.png (1.2 MB)
  • 07-2.png (1.2 MB)
  • 08-1.png (1.1 MB)
  • 08-2.png (1.2 MB)
  • 09-1.png (1.2 MB)
  • 09-2.png (1.1 MB)
  • 10-1.png (1.2 MB)
  • 10-2.png (1.2 MB)
  • 11-1.png (1.1 MB)
  • 11-2.png (1.1 MB)
  • 12-1.png (1.2 MB)
  • 12-2.png (1.2 MB)
Menus
  • 01.png (1.6 MB)
  • 02.png (1.6 MB)
  • 03.png (1.6 MB)
  • 04.png (1.6 MB)
  • 05.png (1.6 MB)
  • 06.png (1.6 MB)
  • 07.png (1.6 MB)
  • 08.png (1.6 MB)
  • 09.png (1.6 MB)
  • 10.png (1.6 MB)
  • 11.png (2.8 MB)
  • 12.png (1.6 MB)
wallpaper
  • 00.jpg (1.3 MB)
  • 01.jpg (974.1 KB)
  • 02.jpg (966.3 KB)
  • 03.jpg (967.4 KB)
  • 04.jpg (1.1 MB)
  • 05.jpg (1.6 MB)
  • 06.jpg (1.3 MB)
  • 07.jpg (1.2 MB)
  • 08.jpg (915.6 KB)
  • 09.jpg (1.5 MB)
  • 10.jpg (942.3 KB)
  • 11.jpg (959.0 KB)
  • 12.jpg (1.0 MB)
  • 13.jpg (1.0 MB)
  • 14.jpg (1.2 MB)
  • 15.jpg (1.2 MB)
  • 16.jpg (1.4 MB)
  • 17.jpg (1.1 MB)
  • 18.jpg (1.1 MB)
  • 19.jpg (1.3 MB)
  • 20.jpg (1.4 MB)
  • 21.jpg (1.3 MB)
  • 22.jpg (1.3 MB)
  • 23.jpg (1.0 MB)
  • 24.jpg (1.1 MB)
  • 25.jpg (1.2 MB)
  • 26.jpg (822.4 KB)
  • 27.jpg (883.5 KB)
  • 28.jpg (1.1 MB)
  • 29.jpg (1.2 MB)
  • 30.jpg (1.0 MB)
  • 31.jpg (1.1 MB)
  • 32.jpg (918.3 KB)
  • 33.jpg (916.8 KB)
  • 34.jpg (1.2 MB)
  • 35.jpg (1.0 MB)
  • 36.jpg (934.0 KB)
  • 37.jpg (903.7 KB)
  • 38.jpg (1.1 MB)
  • 39.jpg (874.4 KB)
  • 40.jpg (1.1 MB)
  • Freezing 01_(BD720p_10bit).mkv (253.0 MB)
  • Freezing 02_(BD720p_10bit).mkv (196.1 MB)
  • Freezing 03_(BD720p_10bit).mkv (166.8 MB)
  • Freezing 04_(BD720p_10bit).mkv (181.5 MB)
  • Freezing 05_(BD720p_10bit).mkv (163.7 MB)
  • Freezing 06_(BD720p_10bit).mkv (146.2 MB)
  • Freezing 07_(BD720p_10bit).mkv (176.3 MB)
  • Freezing 08_(BD720p_10bit).mkv (128.2 MB)
  • Freezing 09_(BD720p_10bit).mkv (154.6 MB)
  • Freezing 10_(BD720p_10bit).mkv (162.8 MB)
  • Freezing 11_(BD720p_10bit).mkv (228.4 MB)
  • Freezing 12_(BD720p_10bit).mkv (211.6 MB)
  • Freezing NCED_(BD720p_10bit).mkv (10.8 MB)
  • Freezing NCOP_(BD720p_10bit).mkv (21.4 MB)
  • Freezing SP01_(BD720p_10bit).mkv (23.0 MB)
  • Freezing SP02_(BD720p_10bit).mkv (12.4 MB)
  • Freezing SP03_(BD720p_10bit).mkv (17.6 MB)
  • Freezing SP04_(BD720p_10bit).mkv (25.2 MB)
  • Freezing SP05_(BD720p_10bit).mkv (18.9 MB)
  • Freezing SP06_(BD720p_10bit).mkv (17.1 MB)
  • Freezing Vibration - 01_(BD720p_10bit).mkv (228.3 MB)
  • Freezing Vibration - 02_(BD720p_10bit).mkv (156.0 MB)
  • Freezing Vibration - 03_(BD720p_10bit).mkv (163.6 MB)
  • Freezing Vibration - 04_(BD720p_10bit).mkv (151.4 MB)
  • Freezing Vibration - 05_(BD720p_10bit).mkv (180.4 MB)
  • Freezing Vibration - 06_(BD720p_10bit).mkv (128.6 MB)
  • Freezing Vibration - 07_(BD720p_10bit).mkv (174.1 MB)
  • Freezing Vibration - 08_(BD720p_10bit).mkv (152.0 MB)
  • Freezing Vibration - 09_(BD720p_10bit).mkv (180.4 MB)
  • Freezing Vibration - 10_(BD720p_10bit).mkv (225.9 MB)
  • Freezing Vibration - 11_(BD720p_10bit).mkv (224.2 MB)
  • Freezing Vibration - 12_(BD720p_10bit).mkv (147.1 MB)
  • Freezing Vibration - NCED_(BD720p_10bit).mkv (19.7 MB)
  • Freezing Vibration - NCOP_(BD720p_10bit).mkv (35.2 MB)
  • Freezing Vibration - Specials - 01_(BD720p_10bit).mkv (23.7 MB)
  • Freezing Vibration - Specials - 02_(BD720p_10bit).mkv (30.2 MB)
  • Freezing Vibration - Specials - 03_(BD720p_10bit).mkv (12.6 MB)
  • Freezing Vibration - Specials - 04_(BD720p_10bit).mkv (16.8 MB)
  • Freezing Vibration - Specials - 05_(BD720p_10bit).mkv (10.4 MB)
  • Freezing Vibration - Specials - 06_(BD720p_10bit).mkv (17.5 MB)
  • Screenshots
    • 2019-07-13_224846.png (1.8 MB)
    • 2019-07-13_224900.png (1.7 MB)
    • 2019-07-13_224945.png (1.7 MB)
    • 2019-07-13_225124.png (1.3 MB)

There are currently no comments. Feel free to leave one :)

Code:

  • http://nyaa.tracker.wf:7777/announce
  • UDP://TRACKER.ZER0DAY.TO:1337/ANNOUNCE
  • UDP://EDDIE4.NL:6969/ANNOUNCE
  • udp://tracker.opentrackr.org:1337/announce