Mother!.2017.720p.BluRay.x264.LLG.mp4

  • Category Movies
  • Type HD
  • Language English
  • Total size 868.3 MB
  • Uploaded By LifeLongg
  • Downloads 310
  • Last checked 3 days ago
  • Date uploaded 1 week ago
  • Seeders 0
  • Leechers 0

mother!

DramaHorror

A couple's relationship is tested when uninvited guests arrive at their home, disrupting their tranquil existence.

Infohash : 0C2E14BEF14D1B9B5E6A8219644C179A66DE44F6

Quote:





******************************Thumbnail:**********************




******************************Screenshots:********************

Screenshot 1

Screenshot 2

Screenshot 3

Screenshot 4

Screenshot 5

Screenshot 6

Screenshot 7

Screenshot 8

Screenshot 9

Screenshot 0


***************************************************************

18+.Mother!.2017.720p.BluRay.x264.LLG.mp4
Format                                   : MPEG-4
Format profile                           : Base Media
Codec ID                                 : isom (isom/iso2/avc1/mp41)
File size                                : 850 MiB
Duration                                 : 2 h 1 min
Overall bit rate mode                    : Variable
Overall bit rate                         : 980 kb/s
Writing application                      : Lavf57.83.100

Video
ID                                       : 1
Format                                   : AVC
Format/Info                              : Advanced Video Codec
Format profile                           : [email protected]
Format settings                          : CABAC / 1 Ref Frames
Format settings, CABAC                   : Yes
Format settings, Reference frames        : 1 frame
Codec ID                                 : avc1
Codec ID/Info                            : Advanced Video Coding
Duration                                 : 2 h 1 min
Bit rate mode                            : Variable
Bit rate                                 : 880 kb/s
Maximum bit rate                         : 2 700 kb/s
Width                                    : 1 280 pixels
Height                                   : 534 pixels
Display aspect ratio                     : 2.40:1
Original display aspect ratio            : 2.40:1
Frame rate mode                          : Constant
Frame rate                               : 23.976 (23976/1000) FPS
Color space                              : YUV
Chroma subsampling                       : 4:2:0
Bit depth                                : 8 bits
Scan type                                : Progressive
Bits/(Pixel*Frame)                       : 0.054
Stream size                              : 763 MiB (90%)
Codec configuration box                  : avcC

Audio
ID                                       : 2
Format                                   : AAC LC
Format/Info                              : Advanced Audio Codec Low Complexity
Codec ID                                 : mp4a-40-2
Duration                                 : 2 h 1 min
Bit rate mode                            : Constant
Bit rate                                 : 96.0 kb/s
Channel(s)                               : 2 channels
Channel layout                           : L R
Sampling rate                            : 48.0 kHz
Frame rate                               : 46.875 FPS (1024 SPF)
Compression mode                         : Lossy
Stream size                              : 83.5 MiB (10%)
Default                                  : Yes
Alternate group                          : 1




****************************************************************



Files:

18+.Mother!.2017.720p.BluRay.x264.LLG
  • Sample 2.mp4 (7.8 MB)
  • SAMPLE.mp4 (10.6 MB)
  • 18+.Mother!.2017.720p.BluRay.x264.LLG.mp4 (850.0 MB)

There are currently no comments. Feel free to leave one :)

Code:

  • udp://tracker.openbittorrent.com:80/announce
  • udp://tracker.opentrackr.org:1337/announce
  • UDP://TRACKER.LEECHERS-PARADISE.ORG:6969/ANNOUNCE