Private.Life.2018.720p.WEBRip.X264.LLG

  • Category Movies
  • Type HD
  • Language English
  • Total size 1.4 GB
  • Uploaded By LifeLongg
  • Downloads 371
  • Last checked 1 month ago
  • Date uploaded 2 months ago
  • Seeders 3
  • Leechers 5

Private Life

ComedyDrama

An author is undergoing multiple fertility therapies to get pregnant, putting her relationship with her husband on edge.

Infohash : 9616737A24E680F6D9E52B7039F312AFB5113A5C

Quote:





******************************Thumbnail:**********************




******************************Screenshots:********************

Screenshot 1

Screenshot 2

Screenshot 3

Screenshot 4

Screenshot 5

Screenshot 6

Screenshot 7

Screenshot 8

Screenshot 9

Screenshot 0


***************************************************************

18+.Private.Life.2018.720p.WEBRip.X264.LLG.mp4
Format : MPEG-4
Format profile : Base Media / Version 2
Codec ID : mp42 (isom/iso2/avc1/mp41)
File size : 1.42 GiB
Duration : 2 h 4 min
Overall bit rate mode : Variable
Overall bit rate : 1 635 kb/s

Video
ID : 1
Format : AVC
Format/Info : Advanced Video Codec
Format profile : [email protected]
Format settings : CABAC / 4 Ref Frames
Format settings, CABAC : Yes
Format settings, Reference frames : 4 frames
Codec ID : avc1
Codec ID/Info : Advanced Video Coding
Duration : 2 h 4 min
Bit rate : 1 500 kb/s
Width : 1 280 pixels
Height : 684 pixels
Display aspect ratio : 1.85:1
Frame rate mode : Variable
Frame rate : 23.976 (24000/1001) FPS
Minimum frame rate : 23.974 FPS
Maximum frame rate : 23.981 FPS
Color space : YUV
Chroma subsampling : 4:2:0
Bit depth : 8 bits
Scan type : Progressive
Bits/(Pixel*Frame) : 0.071
Stream size : 1.30 GiB (92%)
Writing library : x264 core 155 r2901 7d0ff22
Color range : Limited
Color primaries : BT.709
Transfer characteristics : BT.709
Matrix coefficients : BT.709
Codec configuration box : avcC

Audio
ID : 2
Format : AAC LC
Codec ID : mp4a-40-2
Duration : 2 h 4 min
Bit rate mode : Variable
Bit rate : 128 kb/s
Channel(s) : 2 channels
Channel layout : L R
Sampling rate : 48.0 kHz
Frame rate : 46.875 FPS (1024 SPF)
Compression mode : Lossy
Stream size : 114 MiB (8%)
Title : Stereo / Stereo
Default : Yes
Alternate group : 1


****************************************************************


Files:

18+.Private.Life.2018.720p.WEBRip.X264.LLG
  • SAMPLE.mkv (21.7 MB)
  • 18+.Private.Life.2018.720p.WEBRip.X264.LLG.mp4 (1.4 GB)

There are currently no comments. Feel free to leave one :)

Code:

  • udp://tracker.openbittorrent.com:80/announce
  • udp://tracker.opentrackr.org:1337/announce
  • UDP://TRACKER.LEECHERS-PARADISE.ORG:6969/ANNOUNCE