Fear.The.Walking.Dead.S05E09.WEB-DL.XviD.B4ND1T69

  • Category TV
  • Type Divx/Xvid
  • Language English
  • Total size 582.0 MB
  • Uploaded By B4ND1T69
  • Downloads 74
  • Last checked 1 month ago
  • Date uploaded 1 month ago
  • Seeders 8
  • Leechers 1
80%
August 12, 2019, 3:00 am

Fear the Walking Dead

5x9 | Channel 4

The group tries to help a woman trapped in her house.

Infohash : A119BE9CD67065EFB2763A1D863324318E97E9B5

Fear.The.Walking.Dead.S05E09.WEB-DL.XviD.B4ND1T69



Creators: Dave Erickson, Robert Kirkman
Stars: Kim Dickens, Frank Dillane, Cliff Curtis

Plot/Story:
Channel 4
The group, traveling in a convoy, doubles-down on their mission to help survivors. In an effort to encourage more survivors to reach out, Al, Luciana, and Charlie document Morgan and the gang on a dangerous mission to help a reclusive survivor.

General
Complete name : Fear.The.Walking.Dead.S05E09.WEB-DL.XviD.B4ND1T69.avi
Format : AVI
Format/Info : Audio Video Interleave
File size : 582 MiB
Duration : 46 min 43 s
Overall bit rate : 1 741 kb/s
Subtitles : Yes...Included(HI)

Video
ID : 0
Format : MPEG-4 Visual
Format profile : Advanced [email protected]
Format settings, BVOP : 2
Format settings, QPel : No
Format settings, GMC : No warppoints
Format settings, Matrix : Default (H.263)
Codec ID : XVID
Codec ID/Hint : XviD
Duration : 46 min 43 s
Bit rate : 1 600 kb/s
Width : 640 pixels
Height : 360 pixels
Display aspect ratio : 16:9
Frame rate : 23.976 (24000/1001) FPS
Color space : YUV
Chroma subsampling : 4:2:0
Bit depth : 8 bits
Scan type : Progressive
Compression mode : Lossy
Bits/(Pixel*Frame) : 0.290
Stream size : 535 MiB (92%)
Writing library : XviD 64

Audio
ID : 1
Format : MPEG Audio
Format version : Version 1
Format profile : Layer 3
Codec ID : 55
Codec ID/Hint : MP3
Duration : 46 min 43 s
Bit rate mode : Constant
Bit rate : 128 kb/s
Channel(s) : 2 channels
Sampling rate : 48.0 kHz
Compression mode : Lossy
Stream size : 42.8 MiB (7%)
Alignment : Aligned on interleaves
Interleave, duration : 24 ms (0.58 video frame)

Screenshots:

https://i.imgur.com/g8kysy9.png
https://i.imgur.com/VyR2oQc.png
https://i.imgur.com/Vq6YMzS.png
https://i.imgur.com/DVZyWnU.png
https://i.imgur.com/Pt2VEy2.png






Please Seed For As Long As Possible
Or At Least 1:1 Ratio...Thanks
Enjoy Peeps

Files:

Fear.The.Walking.Dead.S05E09.WEB-DL.XviD.B4ND1T69
  • 1337x text file.txt (0.1 KB)
  • KAT text file.txt (0.1 KB)
  • Fear.The.Walking.Dead.S05E09.WEB-DL.XviD.B4ND1T69.srt (50.4 KB)
  • Fear.The.Walking.Dead.S05E09.WEB-DL.XviD.B4ND1T69.avi (581.9 MB)

There are currently no comments. Feel free to leave one :)

Code:

  • udp://tracker.coppersurfer.tk:6969/announce
  • udp://tracker.pirateparty.gr:6969/announce
  • udp://tracker.opentrackr.org:1337/announce
  • udp://tracker.internetwarriors.net:1337/announce
  • udp://tracker.tiny-vps.com:6969/announce
  • udp://open.demonii.si:1337/announce
  • udp://tracker.torrent.eu.org:451/announce
  • udp://tracker.leechers-paradise.org:6969/announce