Skillet - Rise (Deluxe Edition) (2013) [24-96 Hi-Res]

  • Category Music
  • Type Lossless
  • Language English
  • Total size 1.3 GB
  • Uploaded By was95was
  • Downloads 118
  • Last checked 2 days ago
  • Date uploaded 6 days ago
  • Seeders 5
  • Leechers 5

Infohash : 5EF5C3B5AA8ED7DF6CF49B958ACDABAA6E80CF4A



Quality-Lossless
Release-2013
Duration-01:01:01
File Size-1.36 GB
Genre-Rock
Cover Size-1400px

----------------------------------------------------------------------------------------------
Analyzed: Rise / Artist: Skillet
----------------------------------------------------------------------------------------------
DR Peak RMS Duration Title [codec]
----------------------------------------------------------------------------------------------
DR11 -0.00 dB -12.51 dB 4:20 01 - Rise [flac]
DR10 -0.00 dB -11.69 dB 3:10 02 - Sick Of It [flac]
DR12 -0.00 dB -14.03 dB 4:58 03 - Good To Be Alive [flac]
DR11 -0.00 dB -12.15 dB 3:45 04 - Not Gonna Die [flac]
DR11 -0.00 dB -12.89 dB 4:30 05 - Circus For A Psycho [flac]
DR11 -0.00 dB -13.67 dB 4:08 06 - American Noise [flac]
DR10 -0.00 dB -13.61 dB 4:16 07 - Madness In Me [flac]
DR12 -0.00 dB -13.68 dB 3:45 08 - Salvation [flac]
DR11 -0.00 dB -13.30 dB 3:56 09 - Fire And Fury [flac]
DR13 -0.00 dB -14.21 dB 4:12 10 - My Religion [flac]
DR12 -0.00 dB -13.80 dB 3:48 11 - Hard To Find [flac]
DR12 -0.00 dB -13.34 dB 3:20 12 - What I Believe [flac]
DR11 -0.00 dB -13.68 dB 3:45 13 - Battle Cry (Bonus Track) [flac]
DR12 -0.00 dB -14.32 dB 4:25 14 - Everything Goes Black (Bonus Track) [flac]
DR12 -0.00 dB -12.94 dB 4:37 15 - Freakshow (Bonus Track) [flac]
----------------------------------------------------------------------------------------------
Number of files: 15
Official DR value: DR11

Sampling rate: 96000 Hz
Average bitrate: 2956kbs
Bits per sample: 24 bit

Files:

Skillet - Rise (Deluxe Edition) (2013) [24-96 Hi-Res]
  • 01 - Rise.flac (91.4 MB)
  • 02 - Sick Of It.flac (70.9 MB)
  • 03 - Good To Be Alive.flac (104.9 MB)
  • 04 - Not Gonna Die.flac (81.5 MB)
  • 05 - Circus For A Psycho.flac (98.0 MB)
  • 06 - American Noise.flac (84.8 MB)
  • 07 - Madness In Me.flac (86.5 MB)
  • 08 - Salvation.flac (78.7 MB)
  • 09 - Fire And Fury.flac (84.1 MB)
  • 10 - My Religion.flac (92.0 MB)
  • 11 - Hard To Find.flac (79.5 MB)
  • 12 - What I Believe.flac (71.5 MB)
  • 13 - Battle Cry (Bonus Track).flac (79.4 MB)
  • 14 - Everything Goes Black (Bonus Track).flac (88.6 MB)
  • 15 - Freakshow (Bonus Track).flac (100.2 MB)
  • [TGx]Downloaded from torrentgalaxy.org .txt (0.6 KB)
  • cover.jpg (534.4 KB)
  • dr14.txt (1.6 KB)
  • Torrent Downloaded from Glodls.to.txt (0.2 KB)
  • Torrent downloaded from limetorrents.cc.txt (0.1 KB)
  • Torrent Downloaded from worldwidetorrents.to (0.1 KB)

There are currently no comments. Feel free to leave one :)

Code:

  • udp://tracker.piratepublic.com:1337/announce
  • udp://tracker.pirateparty.gr:6969/announce
  • udp://tracker.coppersurfer.tk:6969/announce
  • udp://tracker.leechers-paradise.org:6969/announce
  • udp://9.rarbg.com:2710/announce
  • //p4p.arenabg.com:1337/announce
  • //explodie.org:6969/announce
  • udp://tracker.opentrackr.org:1337/announce
  • udp://exodus.desync.com:6969/announce
  • udp://tracker.leechers-paradise.org:6969/announce
  • udp://tracker.zer0day.to:1337/announce
  • udp://open.demonii.si:1337/announce
  • udp://exodus.desync.com:6969/announce
  • udp://tracker.iamhansen.xyz:2000/announce