Tori Kelly - Inspired by True Events (2019) [24bit Hi-Res]

  • Category Music
  • Type Lossless
  • Language English
  • Total size 514.3 MB
  • Uploaded By was95was
  • Downloads 58
  • Last checked 1 week ago
  • Date uploaded 1 week ago
  • Seeders 3
  • Leechers 2

Infohash : E77A65EEB6D5B7D014AEA24F301870D17D3883B4



Quality-Lossless
Release-2019
Duration-00:44:53
File Size-539.3 MB
Genre-Pop
Cover Size-1400px

----------------------------------------------------------------------------------------------
Analyzed: Inspired by True Events / Artist: Tori Kelly
----------------------------------------------------------------------------------------------
DR Peak RMS Duration Title [codec]
----------------------------------------------------------------------------------------------
DR7 -0.00 dB -9.43 dB 4:08 01 - Coffee [flac]
DR12 -0.84 dB -21.66 dB 0:18 02 - 12/16/1992 [flac]
DR5 -0.00 dB -8.47 dB 2:56 03 - Change Your Mind [flac]
DR6 -0.00 dB -10.72 dB 4:24 04 - Language [flac]
DR6 -0.00 dB -9.08 dB 3:00 05 - 2 Places [flac]
DR10 -1.98 dB -15.72 dB 1:15 06 - 8/28/1997 [flac]
DR7 -0.00 dB -9.92 dB 4:25 07 - Kid I Used To Know [flac]
DR7 -0.00 dB -9.17 dB 3:22 08 - Pretty Fades [flac]
DR8 -3.24 dB -15.70 dB 0:55 09 - 3/2/1991 [flac]
DR8 -0.18 dB -10.55 dB 3:10 10 - Sorry Would Go A Long Way [flac]
DR7 -0.00 dB -7.69 dB 2:56 11 - Actress [flac]
DR7 -0.00 dB -8.70 dB 2:39 12 - The Lie [flac]
DR6 -0.00 dB -11.12 dB 2:35 13 - Until I Think Of You [flac]
DR9 -3.18 dB -17.00 dB 1:25 14 - 3/26/1994 [flac]
DR7 -0.00 dB -11.69 dB 3:39 15 - Your Words [flac]
DR6 -0.00 dB -9.88 dB 3:37 16 - Before The Dawn [flac]
----------------------------------------------------------------------------------------------
Number of files: 16
Official DR value: DR7

Sampling rate: 44100 Hz
Average bitrate: 1573kbs
Bits per sample: 24 bit

Files:

Tori Kelly - Inspired by True Events (2019) [24bit Hi-Res]
  • 01 - Coffee.flac (48.3 MB)
  • 02 - 12-16-1992.flac (3.4 MB)
  • 03 - Change Your Mind.flac (33.8 MB)
  • 04 - Language.flac (50.7 MB)
  • 05 - 2 Places.flac (35.1 MB)
  • 06 - 8-28-1997.flac (13.4 MB)
  • 07 - Kid I Used To Know.flac (53.3 MB)
  • 08 - Pretty Fades.flac (40.3 MB)
  • 09 - 3-2-1991.flac (9.2 MB)
  • 10 - Sorry Would Go A Long Way.flac (36.5 MB)
  • 11 - Actress.flac (34.2 MB)
  • 12 - The Lie.flac (30.4 MB)
  • 13 - Until I Think Of You.flac (29.3 MB)
  • 14 - 3-26-1994.flac (14.5 MB)
  • 15 - Your Words.flac (40.8 MB)
  • 16 - Before The Dawn.flac (40.8 MB)
  • [TGx]Downloaded from torrentgalaxy.org .txt (0.6 KB)
  • cover.jpg (391.1 KB)
  • dr14.txt (1.6 KB)
  • Torrent Downloaded from Glodls.to.txt (0.2 KB)
  • Torrent downloaded from limetorrents.cc.txt (0.1 KB)
  • Torrent Downloaded from worldwidetorrents.to (0.1 KB)

There are currently no comments. Feel free to leave one :)

Code:

  • udp://tracker.piratepublic.com:1337/announce
  • udp://tracker.pirateparty.gr:6969/announce
  • udp://tracker.coppersurfer.tk:6969/announce
  • udp://tracker.leechers-paradise.org:6969/announce
  • udp://9.rarbg.com:2710/announce
  • //p4p.arenabg.com:1337/announce
  • //explodie.org:6969/announce
  • udp://tracker.opentrackr.org:1337/announce
  • udp://exodus.desync.com:6969/announce
  • udp://tracker.leechers-paradise.org:6969/announce
  • udp://tracker.zer0day.to:1337/announce
  • udp://open.demonii.si:1337/announce
  • udp://exodus.desync.com:6969/announce
  • udp://tracker.iamhansen.xyz:2000/announce