Skillet - Awake (2009) [24-96 Hi-Res]

  • Category Music
  • Type Lossless
  • Language English
  • Total size 904.9 MB
  • Uploaded By was95was
  • Downloads 173
  • Last checked 3 months ago
  • Date uploaded 4 months ago
  • Seeders 6
  • Leechers 5

Infohash : 8B1E2D8AA942094348B6C2E4914920A2538FDDA3



Quality-Lossless
Release-2009
Duration-00:44:53
File Size-948.9 MB
Genre-Rock
Cover Size-1400px

----------------------------------------------------------------------------------------------
Analyzed: Awake / Artist: Skillet
----------------------------------------------------------------------------------------------
DR Peak RMS Duration Title [codec]
----------------------------------------------------------------------------------------------
DR9 -0.00 dB -10.55 dB 3:06 01 - Hero [flac]
DR10 -0.00 dB -11.12 dB 3:28 10 - Sometimes [flac]
DR10 -0.00 dB -11.87 dB 3:29 11 - Never Surrender [flac]
DR10 -0.00 dB -12.44 dB 3:41 12 - Lucy [flac]
DR9 -0.00 dB -10.83 dB 2:58 02 - Monster [flac]
DR10 -0.58 dB -12.42 dB 3:54 03 - Don't Wake Me [flac]
DR10 -0.00 dB -10.92 dB 3:31 04 - Awake and Alive [flac]
DR10 -0.00 dB -11.88 dB 3:39 05 - One Day Too Late [flac]
DR10 -0.00 dB -11.58 dB 3:24 06 - It's Not Me It's You [flac]
DR10 -0.00 dB -11.66 dB 3:31 07 - Should've When You Could've [flac]
DR11 -0.00 dB -12.74 dB 3:50 08 - Believe [flac]
DR10 -0.00 dB -11.52 dB 3:39 09 - Forgiven [flac]
----------------------------------------------------------------------------------------------
Number of files: 12
Official DR value: DR10

Sampling rate: 96000 Hz
Average bitrate: 2988kbs
Bits per sample: 24 bit

Files:

Skillet - Awake (2009) [24-96 Hi-Res]
  • 1 - Hero.flac (69.5 MB)
  • 10 - Sometimes.flac (74.8 MB)
  • 11 - Never Surrender.flac (74.4 MB)
  • 12 - Lucy.flac (76.5 MB)
  • 2 - Monster.flac (64.4 MB)
  • 3 - Dont Wake Me.flac (83.4 MB)
  • 4 - Awake and Alive.flac (76.7 MB)
  • 5 - One Day Too Late.flac (78.4 MB)
  • 6 - Its Not Me Its You.flac (73.1 MB)
  • 7 - Shouldve When You Couldve.flac (74.6 MB)
  • 8 - Believe.flac (80.4 MB)
  • 9 - Forgiven.flac (77.9 MB)
  • [TGx]Downloaded from torrentgalaxy.org .txt (0.6 KB)
  • art.jpg (544.0 KB)
  • cover.jpg (348.7 KB)
  • dr14.txt (1.4 KB)
  • Torrent Downloaded from Glodls.to.txt (0.2 KB)
  • Torrent downloaded from limetorrents.cc.txt (0.1 KB)
  • Torrent Downloaded from worldwidetorrents.to (0.1 KB)

There are currently no comments. Feel free to leave one :)

Code:

  • udp://tracker.piratepublic.com:1337/announce
  • udp://tracker.pirateparty.gr:6969/announce
  • udp://tracker.coppersurfer.tk:6969/announce
  • udp://tracker.leechers-paradise.org:6969/announce
  • udp://9.rarbg.com:2710/announce
  • http://p4p.arenabg.com:1337/announce
  • http://explodie.org:6969/announce
  • udp://tracker.opentrackr.org:1337/announce
  • udp://exodus.desync.com:6969/announce
  • udp://tracker.leechers-paradise.org:6969/announce
  • udp://tracker.zer0day.to:1337/announce
  • udp://open.demonii.si:1337/announce
  • udp://exodus.desync.com:6969/announce
  • udp://tracker.iamhansen.xyz:2000/announce