Once.Upon.a.Time.in.Hollywood.2019.HC.HDCam.XviD.B4ND1T69

  • Category Movies
  • Type Divx/Xvid
  • Language English
  • Total size 1.8 GB
  • Uploaded By B4ND1T69
  • Downloads 16268
  • Last checked 3 weeks ago
  • Date uploaded 3 weeks ago
  • Seeders 266
  • Leechers 126

Once Upon a Time in Hollywood

DramaComedyActionCrimeWestern

A faded television actor and his stunt double strive to achieve fame and success in the film industry during the final years of Hollywood's Golden Age in 1969 Los Angeles.

Infohash : C23B4E75CCA3EBEE9E80AA4E5D00AFAAF62B98AC

Once.Upon.a.Time.in.Hollywood.2019.HC.HDCam.XviD.B4ND1T69



Director: Quentin Tarantino
Writer: Quentin Tarantino
Stars: Leonardo DiCaprio, Brad Pitt, Margot Robbie

Plot/Story:
Quentin Tarantino's Once Upon a Time... in Hollywood visits 1969 Los Angeles, where everything is changing, as TV star Rick Dalton (Leonardo DiCaprio) and his longtime stunt double Cliff Booth (Brad Pitt) make their way around an industry they hardly recognize anymore. The ninth film from the writer-director features a large ensemble cast and multiple storylines in a tribute to the final moments of Hollywood's golden age.

Notes:
Had this for a while but it needed lots doing to get it watchable, snipped it into many pieces, replaced any shaky scenes, rotated the images, centered, cropped the excess around the edges, reworked the brightness, contrast, AR, colors, reduced the flicker, sharpened the image up throughout. pieced them all together and remade the audio file to match. FULL MOVIE...nothing missing and has the post credit scenes also...3 samples included.Enjoy.

General
Complete name : Once.Upon.a.Time.in.Hollywood.2019.HC.HDCam.XviD.B4ND1T69.avi
Format : AVI
Format/Info : Audio Video Interleave
Format profile : OpenDML
File size : 1.74 GiB
Duration : 2 h 39 min
Overall bit rate : 1 557 kb/s
Samples : Yes...(3)


Video
ID : 0
Format : MPEG-4 Visual
Format profile : Advanced [email protected]
Format settings, BVOP : 2
Format settings, QPel : No
Format settings, GMC : No warppoints
Format settings, Matrix : Default (H.263)
Codec ID : XVID
Codec ID/Hint : XviD
Duration : 2 h 39 min
Bit rate : 1 415 kb/s
Width : 720 pixels
Height : 336 pixels
Display aspect ratio : 2.143
Frame rate : 25.000 FPS
Color space : YUV
Chroma subsampling : 4:2:0
Bit depth : 8 bits
Scan type : Progressive
Compression mode : Lossy
Bits/(Pixel*Frame) : 0.234
Stream size : 1.58 GiB (91%)
Writing library : XviD 64

Audio
ID : 1
Format : MPEG Audio
Format version : Version 1
Format profile : Layer 3
Mode : Joint stereo
Mode extension : MS Stereo
Codec ID : 55
Codec ID/Hint : MP3
Duration : 2 h 39 min
Bit rate mode : Constant
Bit rate : 128 kb/s
Channel(s) : 2 channels
Sampling rate : 48.0 kHz
Compression mode : Lossy
Stream size : 146 MiB (8%)
Alignment : Aligned on interleaves
Interleave, duration : 24 ms (0.60 video frame)

Screenshots:

https://i.imgur.com/RnYUKHo.png
https://i.imgur.com/diwfz6T.png
https://i.imgur.com/vqsCGJa.png
https://i.imgur.com/YnYNz6x.png
https://i.imgur.com/juHw3CL.png
https://i.imgur.com/9zTYkHD.png
https://i.imgur.com/HK95HHQ.png
https://i.imgur.com/2Hh883v.png









Please Seed For As Long As Possible
Or At Least 1:1 Ratio...Thanks
Enjoy Peeps

Files:

Once.Upon.a.Time.in.Hollywood.2019.HC.HDCam.XviD.B4ND1T69
  • 1337x text file.txt (0.1 KB)
  • Downloaded from katcr.co.txt (0.1 KB)
  • Sample.2.avi (20.5 MB)
  • Sample.1.avi (29.0 MB)
  • Sample.3.avi (41.1 MB)
  • Once.Upon.a.Time.in.Hollywood.2019.HC.HDCam.XviD.B4ND1T69.avi (1.7 GB)

Comments

Code:

  • udp://tracker.coppersurfer.tk:6969/announce
  • udp://tracker.pirateparty.gr:6969/announce
  • udp://tracker.opentrackr.org:1337/announce
  • udp://tracker.internetwarriors.net:1337/announce
  • udp://tracker.tiny-vps.com:6969/announce
  • udp://open.demonii.si:1337/announce
  • udp://tracker.torrent.eu.org:451/announce
  • udp://tracker.leechers-paradise.org:6969/announce