+18 Nude 2019 x264 720p HD Esub Hindi GOPISAHI

  • Category Movies
  • Type Bollywood
  • Language Hindi
  • Total size 797.0 MB
  • Uploaded By PENDUDESI
  • Downloads 13350
  • Last checked 2 weeks ago
  • Date uploaded 2 weeks ago
  • Seeders 88
  • Leechers 36

Infohash : CCE275127E9747A8DCC94D1AC9767112BB6D804A

https://www.gopisahi.xyz/



+18 Nude 2019 x264 720p HD Esub Hindi GOPISAHI

Format : Matroska
Format version : Version 4
File size : 797 MiB
Duration : 1 h 51 min
Overall bit rate : 995 kb/s
Movie name : NUDE 2019 GOPISAHI

Video
Format : AVC
Format/Info : Advanced Video Codec
Format profile : [email protected]
Codec ID : V_MPEG4/ISO/AVC
Duration : 1 h 51 min
Bit rate : 899 kb/s
Width : 1 280 pixels
Height : 714 pixels
Display aspect ratio : 16:9
Frame rate mode : Constant
Frame rate : 24.000 FPS
Color space : YUV
Chroma subsampling : 4:2:0
Bit depth : 8 bits
Scan type : Progressive
Bits/(Pixel*Frame) : 0.041
Stream size : 720 MiB (90%)
Title : GOPISAHI
Writing library : x264 core 157 r2935 545de2f

Audio
Format : AAC LC
Duration : 1 h 51 min
Bit rate : 96.0 kb/s
Channel(s) : 2 channels
Channel layout : L R
Sampling rate : 48.0 kHz
Frame rate : 46.875 FPS (1024 SPF)
Compression mode : Lossy
Delay relative to video : -21 ms
Stream size : 75.5 MiB (9%)
Title : GOPISAHI
Language : Hindi

Text





Files:

  • +18 Nude 2019 x264 720p HD Esub Hindi GOPISAHI.mkv (797.0 MB)

Comments

Code:

  • udp://tracker.coppersurfer.tk:6969/announce
  • udp://tracker.opentrackr.org:1337/announce
  • udp://explodie.org:6969/announce
  • udp://9.rarbg.to:2790/announce
  • udp://bt.xxx-tracker.com:2710/announce
  • udp://tracker.internetwarriors.net:1337/announce
  • udp://tracker.openbittorrent.com:80/announce
  • udp://tracker.tiny-vps.com:6969/announce
  • udp://open.demonii.si:1337/announce
  • udp://tracker.torrent.eu.org:451/announce
  • udp://tracker.pirateparty.gr:6969/announce
  • udp://ipv4.tracker.harry.lu:80/announce
  • udp://tracker.cyberia.is:6969/announce
  • udp://9.rarbg.to:2790/announce