Rage Of Bahamut Seasons 1+2 BD720p (10bit_Hevc_SmoodFlamez)

  • Category Anime
  • Type Subbed
  • Language Japanese
  • Total size 6.1 GB
  • Uploaded By smoodflamez
  • Downloads 200
  • Last checked 1 month ago
  • Date uploaded 1 month ago
  • Seeders 10
  • Leechers 7

Infohash : 605B533A2CA979001184D47A81A6FAFD4DC94EE1

Title
Shingeki no Bahamut: Genesis
Shingeki no Bahamut: Virgin Soul

Sources
DmonHiro
[Mawaru]

Synopsis
Thousands of years ago, the ancient dragon Bahamut wrought havoc upon the land of Mistarcia, a world where both gods and demons live amongst mankind. Working together to prevent the world’s destruction, the rival deities barely managed to seal Bahamut, agreeing to split the key between them so that the dragon would remain eternally imprisoned.

With the world safe from the destruction of Bahamut, it is business as usual for bounty hunters like Favaro Leone. Living a laid-back, self-serving lifestyle, the amoral Favaro goes about his work while on the run from fellow bounty hunter Kaisar Lidfard, a righteous man who swears vengeance upon Favaro. However, Favaro’s carefree life is thrown into chaos when he meets Amira, a mysterious woman who holds half of the key to the world’s fragile peace.

Shingeki no Bahamut: Genesis tells the story of a group of unlikely heroes who find themselves caught in the middle of an epic clash between gods and demons, forced to carve their own path in the face of the imminent storm.

Type: TV
Episodes: 12
Status: Finished Airing
Aired: Oct 6, 2014 to Dec 29, 2014
Premiered: Fall 2014
Broadcast: Mondays at 23:30 (JST)
Producers: NBCUniversal Entertainment Japan, Cygames
Licensors: Funimation
Studios: MAPPA
Source: Game
Genres: Action, Adventure, Demons, Fantasy, Magic, Supernatural
Duration: 24 min. per ep.
Rating: R - 17+ (violence & profanity)

==========================================================================

MediaInfo
Video
ID : 1
Format : HEVC
Format/Info : High Efficiency Video Coding
Format profile : Main [email protected]@High/Main [email protected]@Main
Codec ID : V_MPEGH/ISO/HEVC
Duration : 23 min 42 s
Bit rate : 864 kb/s
Width : 1 280 pixels
Height : 720 pixels
Display aspect ratio : 16:9
Frame rate mode : Constant
Frame rate : 23.976 (24000/1001) FPS
Color space : YUV
Chroma subsampling : 4:2:0
Bit depth : 10 bits

Audio
ID : 2
Format : Opus
Codec ID : A_OPUS
Duration : 24 min 11 s
Bit rate : 75.5 kb/s
Channel(s) : 2 channels
Channel layout : L R
Sampling rate : 96.0 kHz
Frame rate : 50.000 FPS (1920 SPF)
Compression mode : Lossy
Stream size : 13.1 MiB (7%)
Language : Japanese
Default : Yes
Forced : No

ID : 3
Format : AAC LC SBR
Format/Info : Advanced Audio Codec Low Complexity with Spectral Band Replication
Commercial name : HE-AAC
Format settings : Explicit
Codec ID : A_AAC-2
Duration : 23 min 42 s
Bit rate : 80.0 kb/s
Channel(s) : 2 channels
Channel layout : L R
Sampling rate : 96.0 kHz
Frame rate : 46.875 FPS (2048 SPF)
Compression mode : Lossy
Delay relative to video : 16 ms
Stream size : 13.6 MiB (7%)
Language : Japanese
Default : No
Forced : No

Text
ID : 3
Format : ASS
Codec ID : S_TEXT/ASS
Codec ID/Info : Advanced Sub Station Alpha
Duration : 23 min 28 s
Bit rate : 41 b/s
Count of elements : 149
Compression mode : Lossless
Stream size : 7.17 KiB (0%)
Default : No
Forced : Yes

================================================================

Screenshots

Files:

Rage Of Bahamut Batch BD720p_(HEVC_10bit_SmoodFlamez) End Cards
  • 1.png (2.2 MB)
  • 10.png (2.0 MB)
  • 11.png (1.9 MB)
  • 12.png (1.1 MB)
  • 13.png (2.0 MB)
  • 14.png (2.0 MB)
  • 15.png (2.5 MB)
  • 16.png (1.7 MB)
  • 17.png (1.9 MB)
  • 18.png (2.0 MB)
  • 19.png (2.2 MB)
  • 2.png (2.2 MB)
  • 20.png (2.1 MB)
  • 21.png (2.4 MB)
  • 22.png (2.4 MB)
  • 23.png (655.0 KB)
  • 24.png (1.5 MB)
  • 3.png (2.1 MB)
  • 4.png (2.0 MB)
  • 5.png (1.5 MB)
  • 6.png (2.3 MB)
  • 7.png (2.2 MB)
  • 8.png (2.5 MB)
  • 9.png (2.7 MB)
Screenshots
  • 2019-06-14_221219.png (1.8 MB)
  • 2019-06-14_221243.png (1.8 MB)
  • 2019-06-14_221254.png (1.0 MB)
  • 2019-06-14_221312.png (1.4 MB)
Season 1
  • Shingeki no Bahamut Genesis - 01_BD720p.mkv (170.2 MB)
  • Shingeki no Bahamut Genesis - 02_BD720p.mkv (217.8 MB)
  • Shingeki no Bahamut Genesis - 03_BD720p.mkv (182.8 MB)
  • Shingeki no Bahamut Genesis - 04_BD720p.mkv (175.2 MB)
  • Shingeki no Bahamut Genesis - 05_BD720p.mkv (231.7 MB)
  • Shingeki no Bahamut Genesis - 06_BD720p.mkv (174.1 MB)
  • Shingeki no Bahamut Genesis - 07_BD720p.mkv (191.2 MB)
  • Shingeki no Bahamut Genesis - 08_BD720p.mkv (168.1 MB)
  • Shingeki no Bahamut Genesis - 09_BD720p.mkv (188.8 MB)
  • Shingeki no Bahamut Genesis - 10_BD720p.mkv (238.3 MB)
  • Shingeki no Bahamut Genesis - 11_BD720p.mkv (274.1 MB)
  • Shingeki no Bahamut Genesis - 12_BD720p.mkv (211.0 MB)
  • Shingeki no Bahamut Genesis - NCED_BD720p.mkv (24.3 MB)
  • Shingeki no Bahamut Genesis - NCOP_BD720p.mkv (40.6 MB)
Season 2
  • episode 00a - short story #1.mkv (33.4 MB)
  • episode 00b - short story #2.mkv (28.0 MB)
  • episode 01 - Red Dragon.mkv (148.8 MB)
  • episode 02 - The Miserables.mkv (179.4 MB)
  • episode 03 - Close Encounter.mkv (174.7 MB)
  • episode 04 - Firestarter.mkv (173.3 MB)
  • episode 05 - Those Who Won't Give Up.mkv (153.2 MB)
  • episode 06 - Anatean Holiday.mkv (185.7 MB)
  • episode 07 - The Day Of Victory.mkv (180.5 MB)
  • episode 08 - The Day Of Defeat.mkv (169.8 MB)
  • episode 09 - Same Old, Same Old.mkv (154.9 MB)
  • episode 10 - The Way She Was.mkv (144.4 MB)
  • episode 11 - Declaration Of War.mkv (147.2 MB)
  • episode 12 - The Great Escape.mkv (189.2 MB)
  • episode 13 - A Farewell To Arms.mkv (185.7 MB)
  • episode 14 - Homecoming.mkv (119.9 MB)
  • episode 15 - City Of The Gods, Part 1.mkv (142.2 MB)
  • episode 16 - City Of The Gods, Part 2.mkv (159.9 MB)
  • episode 17 - Virgin Souls.mkv (146.1 MB)
  • episode 18 - Invictus.mkv (116.9 MB)
  • episode 19 - Shall We Dance!.mkv (130.6 MB)
  • episode 20 - From Heaven To Hell.mkv (111.1 MB)
  • episode 21 - Vengeance.mkv (120.9 MB)
  • episode 22 - Which Way Is The Wind Blowing!.mkv (142.7 MB)
  • episode 23 - Rise Of The Nightmare.mkv (162.5 MB)
  • episode 24 - Run, Nina, Run.mkv (132.7 MB)

There are currently no comments. Feel free to leave one :)

Code:

  • http://nyaa.tracker.wf:7777/announce
  • UDP://TRACKER.ZER0DAY.TO:1337/ANNOUNCE
  • UDP://EDDIE4.NL:6969/ANNOUNCE
  • udp://tracker.opentrackr.org:1337/announce