The Professor (2019)Mp-4 X264 1080p AAC[DSD]

  • Category Movies
  • Type HD
  • Language English
  • Total size 1.8 GB
  • Uploaded By dascuba1337
  • Downloads 490
  • Last checked 1 week ago
  • Date uploaded 1 week ago
  • Seeders 15
  • Leechers 9

The Professor

ComedyDrama

Richard, a world-weary college professor is given a life-changing diagnosis and decides to throw all pretense and conventions to the wind and live his life as boldly and freely as possible with a biting sense of humor, a reckless streak, and a touch of madness.

Infohash : 62C3CC719B1A413A2A1EA1D22724BB080F6FC64B



[youtube]raGuAtgC9C0[/youtube]
IMDb Info for this Film

General
Complete name : THE_PROFESSOR.mp4
Format : MPEG-4
Format profile : Base Media / Version 2
Codec ID : mp42 (mp42/isom/avc1)
File size : 1.79 GiB
Duration : 1 h 31 min
Overall bit rate mode : Variable
Overall bit rate : 2 804 kb/s
Movie name : THE_PROFESSOR.Title664
Performer : Wayne Roberts
Performer/Sorted by : Wayne Roberts
Genre : Comedy & Drama
Description : A world-weary college professor is given a life-changing diagnosis and decides to throw all pretense and conventions to the wind and live his life as boldly and freely as possible with a biting sense of humor, a reckless streak and a touch of madness.
Encoded date : UTC 2019-09-08 02:11:21
Tagged date : UTC 2019-09-08 05:25:44
Writing application : DVDFab 11.0.4.7
Cover : Yes
Title/Sort : The Professor
LongDescription : A world-weary college professor is given a life-changing diagnosis and decides to throw all pretense and conventions to the wind and live his life as boldly and freely as possible with a biting sense of humor, a reckless streak and a touch of madness.

Video
ID : 1
Format : AVC
Format/Info : Advanced Video Codec
Format profile : [email protected]
Format settings : CABAC / 2 Ref Frames
Format settings, CABAC : Yes
Format settings, RefFrames : 2 frames
Format settings, GOP : M=1, N=24
Codec ID : avc1
Codec ID/Info : Advanced Video Coding
Duration : 1 h 31 min
Source duration : 1 h 31 min
Bit rate mode : Variable
Bit rate : 2 342 kb/s
Maximum bit rate : 3 577 kb/s
Width : 1 920 pixels
Height : 1 036 pixels
Display aspect ratio : 1.85:1
Frame rate mode : Constant
Frame rate : 23.976 (24000/1001) FPS
Color space : YUV
Chroma subsampling : 4:2:0
Bit depth : 8 bits
Scan type : Progressive
Bits/(Pixel*Frame) : 0.049
Stream size : 1.50 GiB (84%)
Source stream size : 1.50 GiB (84%)
Encoded date : UTC 2019-09-08 02:11:21
Tagged date : UTC 2019-09-08 05:25:44
Color primaries : BT.709
Transfer characteristics : BT.709
Matrix coefficients : BT.709
Menus : 4

Audio
ID : 2
Format : AAC
Format/Info : Advanced Audio Codec
Format profile : LC
Codec ID : mp4a-40-2
Duration : 1 h 31 min
Bit rate mode : Variable
Bit rate : 448 kb/s
Maximum bit rate : 456 kb/s
Channel(s) : 6 channels
Channel positions : Front: L C R, Side: L R, LFE
Sampling rate : 48.0 kHz
Frame rate : 46.875 FPS (1024 SPF)
Compression mode : Lossy
Stream size : 294 MiB (16%)
Title : English (aac 5.1)
Language : English
Default : Yes
Alternate group : 1
Encoded date : UTC 2019-09-08 02:11:21
Tagged date : UTC 2019-09-08 05:25:44

Text
ID : 3
Format : VobSub
Codec ID : mp4s-E0
Codec ID/Info : The same subtitle format used on DVDs
Duration : 1 h 31 min
Bit rate mode : Variable
Bit rate : 11.2 kb/s
Maximum bit rate : 4 206 Mb/s
Stream size : 7.35 MiB (0%)
Language : English
Default : Yes
Forced : No
Alternate group : 2
Encoded date : UTC 2019-09-08 02:11:21
Tagged date : UTC 2019-09-08 05:25:29

Files:

  • THE_PROFESSOR.Title664.mp4 (1.8 GB)

There are currently no comments. Feel free to leave one :)

Code:

  • udp://tracker.openbittorrent.com:80/announce
  • udp://tracker.opentrackr.org:1337/announce
  • udp://tracker.coppersurfer.tk:6969/announce
  • udp://9.rarbg.to:2710/announce