Bobs Burgers S01 1080p AMZN Webrip x265 10bit AC3 5.1 - Goki

  • Category TV
  • Type HEVC/x265
  • Language English
  • Total size 3.0 GB
  • Uploaded By Goki
  • Downloads 175
  • Last checked 5 days ago
  • Date uploaded 1 week ago
  • Seeders 13
  • Leechers 7

Infohash : F5916453C4FE215CDD36C0BFC66AADAB96026057




Bob's Burgers (2011) IMDB






Media Information



Format : Matroska
Format version : Version 4
Writing application : mkvmerge v28.2.0 ('The Awakening') 64-bit
Writing library : libebml v1.3.6 + libmatroska v1.4.9

Video
ID : 1
Format : HEVC
Format/Info : High Efficiency Video Coding
Format profile : Main [email protected]@Main
Codec ID : V_MPEGH/ISO/HEVC
Duration : 21 min 38 s
Bit rate : 977 kb/s
Width : 1 920 pixels
Height : 1 080 pixels
Display aspect ratio : 16:9
Frame rate mode : Constant
Frame rate : 23.976 (24000/1001) FPS
Original frame rate : 23.976 (23976/1000) FPS
Color space : YUV
Chroma subsampling : 4:2:0
Bit depth : 10 bits
Bits/(Pixel*Frame) : 0.020
Stream size : 151 MiB (72%)
Writing library : x265 2.9+8-27d8424c799d:[Windows][MSVC 1915][64 bit] 10bit
Encoding settings : cpuid=1111039 / frame-threads=3 / numa-pools=8 / wpp / no-pmode / no-pme / no-psnr / no-ssim / log-level=2 / input-csp=1 / input-res=1920x1080 / interlace=0 / total-frames=0 / level-idc=0 / high-tier=1 / uhd-bd=0 / ref=4 / no-allow-non-conformance / no-repeat-headers / annexb / no-aud / no-hrd / info / hash=0 / no-temporal-layers / open-gop / min-keyint=23 / keyint=250 / gop-lookahead=0 / bframes=8 / b-adapt=2 / b-pyramid / bframe-bias=0 / rc-lookahead=100 / lookahead-slices=4 / scenecut=40 / radl=0 / no-intra-refresh / ctu=64 / min-cu-size=8 / no-rect / no-amp / max-tu-size=32 / tu-inter-depth=1 / tu-intra-depth=1 / limit-tu=0 / rdoq-level=2 / dynamic-rd=0.00 / no-ssim-rd / signhide / no-tskip / nr-intra=0 / nr-inter=0 / no-constrained-intra / no-strong-intra-smoothing / max-merge=3 / limit-refs=3 / limit-modes / me=3 / subme=5 / merange=57 / temporal-mvp / weightp / no-weightb / no-analyze-src-pics / deblock=0:0 / sao / no-sao-non-deblock / rd=4 / no-early-skip / rskip / no-fast-intra / no-tskip-fast / no-cu-lossless / no-b-intra / no-splitrd-skip / rdpenalty=0 / psy-rd=1.30 / psy-rdoq=2.00 / no-rd-refine / no-lossless / cbqpoffs=0 / crqpoffs=0 / rc=crf / crf=22.0 / qcomp=0.60 / qpstep=4 / stats-write=0 / stats-read=0 / ipratio=1.40 / pbratio=1.30 / aq-mode=2 / aq-strength=1.10 / cutree / zone-count=0 / no-strict-cbr / qg-size=32 / no-rc-grain / qpmax=69 / qpmin=0 / no-const-vbv / sar=1 / overscan=0 / videoformat=5 / range=0 / colorprim=2 / transfer=2 / colormatrix=2 / chromaloc=0 / display-window=0 / max-cll=0,0 / min-luma=0 / max-luma=1023 / log2-max-poc-lsb=8 / vui-timing-info / vui-hrd-info / slices=1 / no-opt-qp-pps / no-opt-ref-list-length-pps / no-multi-pass-opt-rps / scenecut-bias=0.05 / no-opt-cu-delta-qp / no-aq-motion / no-hdr / no-hdr-opt / no-dhdr10-opt / no-idr-recovery-sei / analysis-reuse-level=5 / scale-factor=0 / refine-intra=0 / refine-inter=0 / refine-mv=0 / no-limit-sao / ctu-info=0 / no-lowpass-dct / refine-mv-type=0 / copy-pic=1 / max-ausize-factor=1.0 / no-dynamic-refine / no-single-sei
Language : English
Default : Yes
Forced : No

Audio
ID : 2
Format : AC-3
Format/Info : Audio Coding 3
Commercial name : Dolby Digital
Codec ID : A_AC3
Duration : 21 min 38 s
Bit rate mode : Constant
Bit rate : 384 kb/s
Channel(s) : 6 channels
Channel layout : L R C LFE Ls Rs
Sampling rate : 48.0 kHz
Frame rate : 31.250 FPS (1536 SPF)
Bit depth : 16 bits
Compression mode : Lossy
Stream size : 59.4 MiB (28%)
Language : English
Service kind : Complete Main
Default : Yes
Forced : No

Text
ID : 3
Format : UTF-8
Codec ID : S_TEXT/UTF8
Codec ID/Info : UTF-8 Plain Text
Duration : 21 min 1 s
Bit rate : 119 b/s
Count of elements : 520
Stream size : 18.4 KiB (0%)
Language : English
Default : No
Forced : No

Source


AMZN CtrlHD

.........................................................................................................................................


Files:

Bobs Burgers S01 1080p AMZN Webrip x265 10bit AC3 5.1 - Goki
  • banner.jpg (126.6 KB)
  • Bobs Burgers S01E01 Human Flesh 1080p AMZN Webrip x265 10bit AC3 5.1 - Goki.mkv (211.0 MB)
  • Bobs Burgers S01E01 Human Flesh 1080p AMZN Webrip x265 10bit AC3 5.1 - Goki.nfo (1.6 KB)
  • Bobs Burgers S01E01 Human Flesh 1080p AMZN Webrip x265 10bit AC3 5.1 - Goki-thumb.jpg (34.7 KB)
  • Bobs Burgers S01E02 Crawl Space 1080p AMZN Webrip x265 10bit AC3 5.1 - Goki.mkv (212.9 MB)
  • Bobs Burgers S01E02 Crawl Space 1080p AMZN Webrip x265 10bit AC3 5.1 - Goki.nfo (1.6 KB)
  • Bobs Burgers S01E02 Crawl Space 1080p AMZN Webrip x265 10bit AC3 5.1 - Goki-thumb.jpg (19.4 KB)
  • Bobs Burgers S01E03 Sacred Cow 1080p AMZN Webrip x265 10bit AC3 5.1 - Goki.mkv (235.9 MB)
  • Bobs Burgers S01E03 Sacred Cow 1080p AMZN Webrip x265 10bit AC3 5.1 - Goki.nfo (1.5 KB)
  • Bobs Burgers S01E03 Sacred Cow 1080p AMZN Webrip x265 10bit AC3 5.1 - Goki-thumb.jpg (34.8 KB)
  • Bobs Burgers S01E04 Sexy Dance Fighting 1080p AMZN Webrip x265 10bit AC3 5.1 - Goki.mkv (258.0 MB)
  • Bobs Burgers S01E04 Sexy Dance Fighting 1080p AMZN Webrip x265 10bit AC3 5.1 - Goki.nfo (1.5 KB)
  • Bobs Burgers S01E04 Sexy Dance Fighting 1080p AMZN Webrip x265 10bit AC3 5.1 - Goki-thumb.jpg (37.2 KB)
  • Bobs Burgers S01E05 Hamburger Dinner Theater 1080p AMZN Webrip x265 10bit AC3 5.1 - Goki.mkv (234.6 MB)
  • Bobs Burgers S01E05 Hamburger Dinner Theater 1080p AMZN Webrip x265 10bit AC3 5.1 - Goki.nfo (1.6 KB)
  • Bobs Burgers S01E05 Hamburger Dinner Theater 1080p AMZN Webrip x265 10bit AC3 5.1 - Goki-thumb.jpg (26.1 KB)
  • Bobs Burgers S01E06 Sheesh Cab Bob 1080p AMZN Webrip x265 10bit AC3 5.1 - Goki.mkv (243.1 MB)
  • Bobs Burgers S01E06 Sheesh Cab Bob 1080p AMZN Webrip x265 10bit AC3 5.1 - Goki.nfo (1.8 KB)
  • Bobs Burgers S01E06 Sheesh Cab Bob 1080p AMZN Webrip x265 10bit AC3 5.1 - Goki-thumb.jpg (25.6 KB)
  • Bobs Burgers S01E07 Bed & Breakfast 1080p AMZN Webrip x265 10bit AC3 5.1 - Goki.mkv (210.3 MB)
  • Bobs Burgers S01E07 Bed & Breakfast 1080p AMZN Webrip x265 10bit AC3 5.1 - Goki.nfo (1.5 KB)
  • Bobs Burgers S01E07 Bed & Breakfast 1080p AMZN Webrip x265 10bit AC3 5.1 - Goki-thumb.jpg (29.9 KB)
  • Bobs Burgers S01E08 Art Crawl 1080p AMZN Webrip x265 10bit AC3 5.1 - Goki.mkv (233.5 MB)
  • Bobs Burgers S01E08 Art Crawl 1080p AMZN Webrip x265 10bit AC3 5.1 - Goki.nfo (1.6 KB)
  • Bobs Burgers S01E08 Art Crawl 1080p AMZN Webrip x265 10bit AC3 5.1 - Goki-thumb.jpg (27.9 KB)
  • Bobs Burgers S01E09 Spaghetti Western and Meatballs 1080p AMZN Webrip x265 10bit AC3 5.1 - Goki.mkv (231.7 MB)
  • Bobs Burgers S01E09 Spaghetti Western and Meatballs 1080p AMZN Webrip x265 10bit AC3 5.1 - Goki.nfo (1.5 KB)
  • Bobs Burgers S01E09 Spaghetti Western and Meatballs 1080p AMZN Webrip x265 10bit AC3 5.1 - Goki-thumb.jpg (32.9 KB)
  • Bobs Burgers S01E10 Burger Wars 1080p AMZN Webrip x265 10bit AC3 5.1 - Goki.mkv (247.6 MB)
  • Bobs Burgers S01E10 Burger Wars 1080p AMZN Webrip x265 10bit AC3 5.1 - Goki.nfo (1.8 KB)
  • Bobs Burgers S01E10 Burger Wars 1080p AMZN Webrip x265 10bit AC3 5.1 - Goki-thumb.jpg (28.7 KB)
  • Bobs Burgers S01E11 Weekend at Morts 1080p AMZN Webrip x265 10bit AC3 5.1 - Goki.mkv (233.2 MB)
  • Bobs Burgers S01E11 Weekend at Morts 1080p AMZN Webrip x265 10bit AC3 5.1 - Goki.nfo (1.7 KB)
  • Bobs Burgers S01E11 Weekend at Morts 1080p AMZN Webrip x265 10bit AC3 5.1 - Goki-thumb.jpg (31.9 KB)
  • Bobs Burgers S01E12 Lobsterfest 1080p AMZN Webrip x265 10bit AC3 5.1 - Goki.mkv (317.5 MB)
  • Bobs Burgers S01E12 Lobsterfest 1080p AMZN Webrip x265 10bit AC3 5.1 - Goki.nfo (1.8 KB)
  • Bobs Burgers S01E12 Lobsterfest 1080p AMZN Webrip x265 10bit AC3 5.1 - Goki-thumb.jpg (51.1 KB)
  • Bobs Burgers S01E13 Torpedo 1080p AMZN Webrip x265 10bit AC3 5.1 - Goki.mkv (225.8 MB)
  • Bobs Burgers S01E13 Torpedo 1080p AMZN Webrip x265 10bit AC3 5.1 - Goki.nfo (1.7 KB)
  • Bobs Burgers S01E13 Torpedo 1080p AMZN Webrip x265 10bit AC3 5.1 - Goki-thumb.jpg (48.8 KB)
  • character.png (176.0 KB)
  • clearart.png (323.8 KB)
  • clearlogo.png (59.2 KB)
  • fanart.jpg (830.7 KB)
  • landscape.jpg (196.3 KB)
  • logo.png (59.2 KB)
  • poster.jpg (446.2 KB)
  • season01-poster.jpg (977.0 KB)
  • thumb.jpg (196.3 KB)
  • tvshow.nfo (5.5 KB)

Comments

Code:

  • udp://tracker.coppersurfer.tk:6969/announce
  • udp://tracker.opentrackr.org:1337/announce
  • udp://tracker.torrent.eu.org:451/announce
  • udp://tracker.internetwarriors.net:1337/announce
  • http://tracker.opentrackr.org:1337/announce
  • udp://denis.stalker.upeer.me:6969/announce
  • udp://tracker.coppersurfer.tk:6969
  • udp://tracker.internetwarriors.net:1337
  • udp://9.rarbg.me:2720/announce
  • udp://explodie.org:6969/announce
  • http://tracker3.itzmx.com:6961/announce
  • udp://tracker.cyberia.is:6969/announce
  • udp://thetracker.org/announce
  • udp://open.demonii.si:1337/announce