The Secret World of Arrietty (2010) 1080p BDRip x265 10bit DTS-HD...

  • Category Anime
  • Type Dual Audio
  • Language English
  • Total size 10.4 GB
  • Uploaded By Goki
  • Downloads 60
  • Last checked 2 months ago
  • Date uploaded 2 months ago
  • Seeders 2
  • Leechers 2

Infohash : 740977BCBFB2C73EA6FF1ED01A2C3C6AB465AB8D




The Secret World of Arrietty (2010) IMDB

Screenshots







Media Information



Unique ID                                : 302683666382777415521397190106329918237 (0xE3B6C0F0EEEE17D390D975C804FC2B1D)
Complete name                            : The Secret World of Arrietty (2010) 1080p BDRip x265 10bit DTS-HD MA 5.1 - Goki.mkv
Format                                   : Matroska
Format version                           : Version 4
File size                                : 10.4 GiB
Duration                                 : 1 h 35 min
Overall bit rate mode                    : Variable
Overall bit rate                         : 15.6 Mb/s
Movie name                               : The Secret World of Arrietty (2010) 1080p BDRip x265 10bit DTS-HD MA 5.1 - Goki
Encoded date                             : UTC 2019-09-11 02:35:51
Writing application                      : mkvmerge v28.2.0 ('The Awakening') 64-bit
Writing library                          : libebml v1.3.6 + libmatroska v1.4.9

Video
ID                                       : 1
Format                                   : HEVC
Format/Info                              : High Efficiency Video Coding
Format profile                           : Main [email protected]@Main
Codec ID                                 : V_MPEGH/ISO/HEVC
Duration                                 : 1 h 35 min
Bit rate                                 : 7 274 kb/s
Width                                    : 1 920 pixels
Height                                   : 1 080 pixels
Display aspect ratio                     : 16:9
Frame rate mode                          : Constant
Frame rate                               : 23.976 (24000/1001) FPS
Color space                              : YUV
Chroma subsampling                       : 4:2:0
Bit depth                                : 10 bits
Bits/(Pixel*Frame)                       : 0.146
Stream size                              : 4.83 GiB (47%)
Writing library                          : x265 2.9+8-27d8424c799d:[Windows][GCC 8.2.0][64 bit] 10bit
Encoding settings                        : cpuid=1049071 / frame-threads=3 / numa-pools=8 / wpp / no-pmode / no-pme / no-psnr / no-ssim / log-level=2 / input-csp=1 / input-res=1920x1080 / interlace=0 / total-frames=0 / level-idc=0 / high-tier=1 / uhd-bd=0 / ref=4 / no-allow-non-conformance / no-repeat-headers / annexb / no-aud / no-hrd / info / hash=0 / no-temporal-layers / open-gop / min-keyint=23 / keyint=250 / gop-lookahead=0 / bframes=8 / b-adapt=2 / b-pyramid / bframe-bias=0 / rc-lookahead=100 / lookahead-slices=4 / scenecut=40 / radl=0 / no-intra-refresh / ctu=64 / min-cu-size=8 / no-rect / no-amp / max-tu-size=32 / tu-inter-depth=2 / tu-intra-depth=2 / limit-tu=4 / rdoq-level=2 / dynamic-rd=0.00 / no-ssim-rd / signhide / no-tskip / nr-intra=0 / nr-inter=0 / no-constrained-intra / no-strong-intra-smoothing / max-merge=3 / limit-refs=2 / limit-modes / me=3 / subme=5 / merange=57 / temporal-mvp / weightp / weightb / no-analyze-src-pics / deblock=0:0 / sao / no-sao-non-deblock / rd=6 / no-early-skip / rskip / no-fast-intra / no-tskip-fast / no-cu-lossless / b-intra / no-splitrd-skip / rdpenalty=0 / psy-rd=1.30 / psy-rdoq=2.00 / no-rd-refine / no-lossless / cbqpoffs=0 / crqpoffs=0 / rc=crf / crf=17.0 / qcomp=0.60 / qpstep=4 / stats-write=0 / stats-read=0 / ipratio=1.40 / pbratio=1.30 / aq-mode=2 / aq-strength=1.10 / cutree / zone-count=0 / no-strict-cbr / qg-size=32 / no-rc-grain / qpmax=69 / qpmin=0 / no-const-vbv / sar=1 / overscan=0 / videoformat=5 / range=0 / colorprim=2 / transfer=2 / colormatrix=2 / chromaloc=0 / display-window=0 / max-cll=0,0 / min-luma=0 / max-luma=1023 / log2-max-poc-lsb=8 / vui-timing-info / vui-hrd-info / slices=1 / no-opt-qp-pps / no-opt-ref-list-length-pps / no-multi-pass-opt-rps / scenecut-bias=0.05 / no-opt-cu-delta-qp / no-aq-motion / no-hdr / no-hdr-opt / no-dhdr10-opt / no-idr-recovery-sei / analysis-reuse-level=5 / scale-factor=0 / refine-intra=0 / refine-inter=0 / refine-mv=0 / no-limit-sao / ctu-info=0 / no-lowpass-dct / refine-mv-type=0 / copy-pic=1 / max-ausize-factor=1.0 / no-dynamic-refine / no-single-sei
Language                                 : English
Default                                  : Yes
Forced                                   : No

Audio #1
ID                                       : 2
Format                                   : DTS XLL
Format/Info                              : Digital Theater Systems
Commercial name                          : DTS-HD Master Audio
Codec ID                                 : A_DTS
Duration                                 : 1 h 35 min
Bit rate mode                            : Variable
Bit rate                                 : 3 802 kb/s
Channel(s)                               : 6 channels
Channel layout                           : C L R Ls Rs LFE
Sampling rate                            : 48.0 kHz
Frame rate                               : 93.750 FPS (512 SPF)
Bit depth                                : 24 bits
Compression mode                         : Lossless
Stream size                              : 2.52 GiB (24%)
Title                                    : Surround 5.1
Language                                 : English
Default                                  : Yes
Forced                                   : No

Audio #2
ID                                       : 3
Format                                   : DTS XLL
Format/Info                              : Digital Theater Systems
Commercial name                          : DTS-HD Master Audio
Codec ID                                 : A_DTS
Duration                                 : 1 h 35 min
Bit rate mode                            : Variable
Bit rate                                 : 4 466 kb/s
Channel(s)                               : 6 channels
Channel layout                           : C L R Ls Rs LFE
Sampling rate                            : 48.0 kHz
Frame rate                               : 93.750 FPS (512 SPF)
Bit depth                                : 24 bits
Compression mode                         : Lossless
Stream size                              : 2.96 GiB (29%)
Title                                    : Surround 5.1
Language                                 : Japanese
Default                                  : No
Forced                                   : No

Text #1
ID                                       : 4
Format                                   : PGS
Codec ID                                 : S_HDMV/PGS
Codec ID/Info                            : Picture based subtitle format used on BDs/HD-DVDs
Duration                                 : 1 h 33 min
Bit rate                                 : 13.9 kb/s
Count of elements                        : 1078
Stream size                              : 9.32 MiB (0%)
Language                                 : English
Default                                  : No
Forced                                   : No

Text #2
ID                                       : 5
Format                                   : PGS
Codec ID                                 : S_HDMV/PGS
Codec ID/Info                            : Picture based subtitle format used on BDs/HD-DVDs
Duration                                 : 1 h 33 min
Bit rate                                 : 24.9 kb/s
Count of elements                        : 1884
Stream size                              : 16.7 MiB (0%)
Language                                 : English
Default                                  : No
Forced                                   : No

Text #3
ID                                       : 6
Format                                   : PGS
Codec ID                                 : S_HDMV/PGS
Codec ID/Info                            : Picture based subtitle format used on BDs/HD-DVDs
Duration                                 : 1 h 33 min
Bit rate                                 : 20.0 kb/s
Count of elements                        : 1500
Stream size                              : 13.4 MiB (0%)
Language                                 : French
Default                                  : No
Forced                                   : No

Text #4
ID                                       : 7
Format                                   : PGS
Codec ID                                 : S_HDMV/PGS
Codec ID/Info                            : Picture based subtitle format used on BDs/HD-DVDs
Duration                                 : 1 h 34 min
Bit rate                                 : 3 b/s
Count of elements                        : 18
Stream size                              : 2.69 KiB (0%)
Language                                 : French
Default                                  : No
Forced                                   : No

Menu
00:00:00.000                             : en:Chapter 01
00:09:56.846                             : en:Chapter 02
00:17:29.715                             : en:Chapter 03
00:25:38.745                             : en:Chapter 04
00:31:02.694                             : en:Chapter 05
00:40:59.874                             : en:Chapter 06
00:51:44.810                             : en:Chapter 07
00:58:23.333                             : en:Chapter 08
01:07:10.359                             : en:Chapter 09
01:16:52.149                             : en:Chapter 10
01:22:43.625                             : en:Chapter 11
01:31:00.329                             : en:Chapter 12

Source Information



Unique ID                                : 37215951584179571553829898154486701817 (0x1BFF881415F17A8B54B4BF6832D29EF9)
Complete name                            : The_Secret_World_of_Arrietty_t03.mkv
Format                                   : Matroska
Format version                           : Version 2
File size                                : 25.8 GiB
Duration                                 : 1 h 35 min
Overall bit rate mode                    : Variable
Overall bit rate                         : 38.9 Mb/s
Movie name                               : The.Secret.World.of.Arrietty
Encoded date                             : UTC 2019-01-16 04:39:29
Writing application                      : MakeMKV v1.10.8 win(x64-release)
Writing library                          : libmakemkv v1.10.8 (1.3.5/1.4.7) win(x64-release)
Original source medium                   : Blu-ray

Video
ID                                       : 1
ID in the original source medium         : 4113 (0x1011)
Format                                   : AVC
Format/Info                              : Advanced Video Codec
Format profile                           : [email protected]
Format settings, CABAC                   : Yes
Format settings, RefFrames               : 4 frames
Format settings, GOP                     : M=1, N=12
Codec ID                                 : V_MPEG4/ISO/AVC
Duration                                 : 1 h 35 min
Bit rate mode                            : Variable
Bit rate                                 : 27.6 Mb/s
Maximum bit rate                         : 36.5 Mb/s
Width                                    : 1 920 pixels
Height                                   : 1 080 pixels
Display aspect ratio                     : 16:9
Frame rate mode                          : Constant
Frame rate                               : 23.976 (24000/1001) FPS
Color space                              : YUV
Chroma subsampling                       : 4:2:0
Bit depth                                : 8 bits
Scan type                                : Progressive
Bits/(Pixel*Frame)                       : 0.555
Stream size                              : 18.3 GiB (71%)
Language                                 : English
Default                                  : No
Forced                                   : No

Audio #1
ID                                       : 2
ID in the original source medium         : 4352 (0x1100)
Format                                   : DTS
Format/Info                              : Digital Theater Systems
Format profile                           : MA / Core
Mode                                     : 16
Format settings, Endianness              : Big
Codec ID                                 : A_DTS
Duration                                 : 1 h 35 min
Bit rate mode                            : Variable / Constant
Bit rate                                 : 3 840 kb/s / 1 509 kb/s
Channel(s)                               : 6 channels
Channel positions                        : Front: L C R, Side: L R, LFE
Sampling rate                            : 48.0 kHz
Frame rate                               : 93.750 FPS (512 SPF)
Bit depth                                : 24 bits
Compression mode                         : Lossless / Lossy
Stream size                              : 2.52 GiB (10%)
Title                                    : Surround 5.1
Language                                 : English
Default                                  : Yes
Forced                                   : No

Audio #2
ID                                       : 3
ID in the original source medium         : 4352 (0x1100)
Format                                   : DTS
Format/Info                              : Digital Theater Systems
Mode                                     : 16
Format settings, Endianness              : Big
Codec ID                                 : A_DTS
Duration                                 : 1 h 35 min
Bit rate mode                            : Constant
Bit rate                                 : 1 509 kb/s
Channel(s)                               : 6 channels
Channel positions                        : Front: L C R, Side: L R, LFE
Sampling rate                            : 48.0 kHz
Frame rate                               : 93.750 FPS (512 SPF)
Bit depth                                : 24 bits
Compression mode                         : Lossy
Stream size                              : 1.00 GiB (4%)
Title                                    : Surround 5.1
Language                                 : English
Default                                  : No
Forced                                   : No

Audio #3
ID                                       : 4
ID in the original source medium         : 4354 (0x1102)
Format                                   : DTS
Format/Info                              : Digital Theater Systems
Format profile                           : MA / Core
Mode                                     : 16
Format settings, Endianness              : Big
Codec ID                                 : A_DTS
Duration                                 : 1 h 35 min
Bit rate mode                            : Variable / Constant
Bit rate                                 : 4 466 kb/s / 1 509 kb/s
Channel(s)                               : 6 channels
Channel positions                        : Front: L C R, Side: L R, LFE
Sampling rate                            : 48.0 kHz
Frame rate                               : 93.750 FPS (512 SPF)
Bit depth                                : 24 bits
Compression mode                         : Lossless / Lossy
Stream size                              : 2.96 GiB (11%)
Title                                    : Surround 5.1
Language                                 : Japanese
Default                                  : No
Forced                                   : No

Audio #4
ID                                       : 5
ID in the original source medium         : 4354 (0x1102)
Format                                   : DTS
Format/Info                              : Digital Theater Systems
Mode                                     : 16
Format settings, Endianness              : Big
Codec ID                                 : A_DTS
Duration                                 : 1 h 35 min
Bit rate mode                            : Constant
Bit rate                                 : 1 509 kb/s
Channel(s)                               : 6 channels
Channel positions                        : Front: L C R, Side: L R, LFE
Sampling rate                            : 48.0 kHz
Frame rate                               : 93.750 FPS (512 SPF)
Bit depth                                : 24 bits
Compression mode                         : Lossy
Stream size                              : 1.00 GiB (4%)
Title                                    : Surround 5.1
Language                                 : Japanese
Default                                  : No
Forced                                   : No

Text #1
ID                                       : 6
ID in the original source medium         : 4608 (0x1200)
Format                                   : PGS
Codec ID                                 : S_HDMV/PGS
Codec ID/Info                            : Picture based subtitle format used on BDs/HD-DVDs
Duration                                 : 1 h 33 min
Bit rate                                 : 13.9 kb/s
Count of elements                        : 1078
Stream size                              : 9.32 MiB (0%)
Language                                 : English
Default                                  : No
Forced                                   : No

Text #2
ID                                       : 8
ID in the original source medium         : 4609 (0x1201)
Format                                   : PGS
Codec ID                                 : S_HDMV/PGS
Codec ID/Info                            : Picture based subtitle format used on BDs/HD-DVDs
Duration                                 : 1 h 33 min
Bit rate                                 : 24.9 kb/s
Count of elements                        : 1884
Stream size                              : 16.7 MiB (0%)
Language                                 : English
Default                                  : No
Forced                                   : No

Text #3
ID                                       : 10
ID in the original source medium         : 4610 (0x1202)
Format                                   : PGS
Codec ID                                 : S_HDMV/PGS
Codec ID/Info                            : Picture based subtitle format used on BDs/HD-DVDs
Duration                                 : 1 h 33 min
Bit rate                                 : 20.0 kb/s
Count of elements                        : 1500
Stream size                              : 13.4 MiB (0%)
Language                                 : French
Default                                  : No
Forced                                   : No

Text #4
ID                                       : 12
ID in the original source medium         : 4611 (0x1203)
Format                                   : PGS
Codec ID                                 : S_HDMV/PGS
Codec ID/Info                            : Picture based subtitle format used on BDs/HD-DVDs
Duration                                 : 1 h 34 min
Bit rate                                 : 3 b/s
Count of elements                        : 18
Stream size                              : 2.69 KiB (0%)
Language                                 : French
Default                                  : No
Forced                                   : No

Menu
00:00:00.000                             : en:Chapter 01
00:09:56.846                             : en:Chapter 02
00:17:29.715                             : en:Chapter 03
00:25:38.745                             : en:Chapter 04
00:31:02.694                             : en:Chapter 05
00:40:59.874                             : en:Chapter 06
00:51:44.810                             : en:Chapter 07
00:58:23.333                             : en:Chapter 08
01:07:10.359                             : en:Chapter 09
01:16:52.149                             : en:Chapter 10
01:22:43.625                             : en:Chapter 11
01:31:00.329                             : en:Chapter 12

.........................................................................................................................................


Files:

The Secret World of Arrietty (2010) 1080p BDRip x265 10bit DTS-HD MA 5.1 - Goki
  • The Secret World of Arrietty (2010) 1080p BDRip x265 10bit DTS-HD MA 5.1 - Goki.mkv (10.4 GB)
  • The Secret World of Arrietty (2010) 1080p BDRip x265 10bit DTS-HD MA 5.1 - Goki.nfo (5.3 KB)
  • The Secret World of Arrietty (2010) 1080p BDRip x265 10bit DTS-HD MA 5.1 - Goki-banner.jpg (48.1 KB)
  • The Secret World of Arrietty (2010) 1080p BDRip x265 10bit DTS-HD MA 5.1 - Goki-clearart.png (432.2 KB)
  • The Secret World of Arrietty (2010) 1080p BDRip x265 10bit DTS-HD MA 5.1 - Goki-clearlogo.png (174.1 KB)
  • The Secret World of Arrietty (2010) 1080p BDRip x265 10bit DTS-HD MA 5.1 - Goki-disc.png (456.6 KB)
  • The Secret World of Arrietty (2010) 1080p BDRip x265 10bit DTS-HD MA 5.1 - Goki-fanart.jpg (324.8 KB)
  • The Secret World of Arrietty (2010) 1080p BDRip x265 10bit DTS-HD MA 5.1 - Goki-keyart.jpg (557.8 KB)
  • The Secret World of Arrietty (2010) 1080p BDRip x265 10bit DTS-HD MA 5.1 - Goki-logo.png (174.1 KB)
  • The Secret World of Arrietty (2010) 1080p BDRip x265 10bit DTS-HD MA 5.1 - Goki-poster.jpg (496.7 KB)
  • The Secret World of Arrietty (2010) 1080p BDRip x265 10bit DTS-HD MA 5.1 - Goki-thumb.jpg (157.4 KB)

There are currently no comments. Feel free to leave one :)

Code:

  • udp://tracker.coppersurfer.tk:6969/announce
  • udp://tracker.opentrackr.org:1337/announce
  • udp://tracker.torrent.eu.org:451/announce
  • udp://tracker.internetwarriors.net:1337/announce
  • http://tracker.opentrackr.org:1337/announce
  • udp://denis.stalker.upeer.me:6969/announce
  • udp://tracker.coppersurfer.tk:6969
  • udp://tracker.internetwarriors.net:1337
  • udp://9.rarbg.me:2720/announce
  • udp://explodie.org:6969/announce
  • http://tracker3.itzmx.com:6961/announce
  • udp://tracker.cyberia.is:6969/announce
  • udp://thetracker.org/announce
  • udp://open.demonii.si:1337/announce