Superman Batman - Apocalypse (2010) 1080p BDRip x265 10bit DTS-HD...

  • Category Movies
  • Type HEVC/x265
  • Language English
  • Total size 4.5 GB
  • Uploaded By Goki
  • Downloads 118
  • Last checked 1 month ago
  • Date uploaded 1 month ago
  • Seeders 8
  • Leechers 2

Superman/Batman: Apocalypse

ActionAdventureAnimationScience Fiction

Batman discovers a mysterious teen-aged girl with superhuman powers and a connection to Superman. When the girl comes to the attention of Darkseid, the evil overlord of Apokolips, events take a decidedly dangerous turn.

Infohash : F51C05E80E5027A14B526F49E26BC93148D76D22




Superman Batman - Apocalypse (2010) IMDB

Screenshots








Media Information



Unique ID : 114299524142781740930523813719370123099 (0x55FD49A14E41C6A2C0FE7670EC50475B)
Complete name : Superman Batman - Apocalypse (2010) 1080p BDRip x265 10bit DTS-HD MA 5.1 - Goki.mkv
Format : Matroska
Format version : Version 4
File size : 4.52 GiB
Duration : 1 h 18 min
Overall bit rate mode : Variable
Overall bit rate : 8 268 kb/s
Movie name : Superman Batman - Apocalypse (2010) 1080p BDRip x265 10bit DTS-HD MA 5.1 - Goki
Encoded date : UTC 2019-09-12 04:04:08
Writing application : mkvmerge v28.2.0 ('The Awakening') 64-bit
Writing library : libebml v1.3.6 + libmatroska v1.4.9

Video
ID : 1
Format : HEVC
Format/Info : High Efficiency Video Coding
Format profile : Main [email protected]@Main
Codec ID : V_MPEGH/ISO/HEVC
Duration : 1 h 18 min
Bit rate : 4 114 kb/s
Width : 1 920 pixels
Height : 1 080 pixels
Display aspect ratio : 16:9
Frame rate mode : Constant
Frame rate : 23.976 (24000/1001) FPS
Color space : YUV
Chroma subsampling : 4:2:0
Bit depth : 10 bits
Bits/(Pixel*Frame) : 0.083
Stream size : 2.25 GiB (50%)
Writing library : x265 2.9+8-27d8424c799d:[Windows][MSVC 1915][64 bit] 10bit
Encoding settings : cpuid=1111039 / frame-threads=3 / numa-pools=8 / wpp / no-pmode / no-pme / no-psnr / no-ssim / log-level=2 / input-csp=1 / input-res=1920x1080 / interlace=0 / total-frames=0 / level-idc=0 / high-tier=1 / uhd-bd=0 / ref=4 / no-allow-non-conformance / no-repeat-headers / annexb / no-aud / no-hrd / info / hash=0 / no-temporal-layers / open-gop / min-keyint=23 / keyint=250 / gop-lookahead=0 / bframes=8 / b-adapt=2 / b-pyramid / bframe-bias=0 / rc-lookahead=100 / lookahead-slices=4 / scenecut=40 / radl=0 / no-intra-refresh / ctu=64 / min-cu-size=8 / no-rect / no-amp / max-tu-size=32 / tu-inter-depth=2 / tu-intra-depth=2 / limit-tu=4 / rdoq-level=2 / dynamic-rd=0.00 / no-ssim-rd / signhide / no-tskip / nr-intra=0 / nr-inter=0 / no-constrained-intra / no-strong-intra-smoothing / max-merge=3 / limit-refs=2 / limit-modes / me=3 / subme=5 / merange=57 / temporal-mvp / weightp / weightb / no-analyze-src-pics / deblock=0:0 / sao / no-sao-non-deblock / rd=6 / no-early-skip / rskip / no-fast-intra / no-tskip-fast / no-cu-lossless / b-intra / no-splitrd-skip / rdpenalty=0 / psy-rd=1.30 / psy-rdoq=2.00 / no-rd-refine / no-lossless / cbqpoffs=0 / crqpoffs=0 / rc=crf / crf=17.0 / qcomp=0.60 / qpstep=4 / stats-write=0 / stats-read=0 / ipratio=1.40 / pbratio=1.30 / aq-mode=2 / aq-strength=1.10 / cutree / zone-count=0 / no-strict-cbr / qg-size=32 / no-rc-grain / qpmax=69 / qpmin=0 / no-const-vbv / sar=1 / overscan=0 / videoformat=5 / range=0 / colorprim=2 / transfer=2 / colormatrix=2 / chromaloc=0 / display-window=0 / max-cll=0,0 / min-luma=0 / max-luma=1023 / log2-max-poc-lsb=8 / vui-timing-info / vui-hrd-info / slices=1 / no-opt-qp-pps / no-opt-ref-list-length-pps / no-multi-pass-opt-rps / scenecut-bias=0.05 / no-opt-cu-delta-qp / no-aq-motion / no-hdr / no-hdr-opt / no-dhdr10-opt / no-idr-recovery-sei / analysis-reuse-level=5 / scale-factor=0 / refine-intra=0 / refine-inter=0 / refine-mv=0 / no-limit-sao / ctu-info=0 / no-lowpass-dct / refine-mv-type=0 / copy-pic=1 / max-ausize-factor=1.0 / no-dynamic-refine / no-single-sei
Language : English
Default : Yes
Forced : No

Audio
ID : 2
Format : DTS XLL
Format/Info : Digital Theater Systems
Commercial name : DTS-HD Master Audio
Codec ID : A_DTS
Duration : 1 h 18 min
Bit rate mode : Variable
Bit rate : 4 083 kb/s
Channel(s) : 6 channels
Channel layout : C L R Ls Rs LFE
Sampling rate : 48.0 kHz
Frame rate : 93.750 FPS (512 SPF)
Bit depth : 24 bits
Compression mode : Lossless
Stream size : 2.23 GiB (49%)
Language : English
Default : Yes
Forced : No

Text #1
ID : 3
Format : PGS
Codec ID : S_HDMV/PGS
Codec ID/Info : Picture based subtitle format used on BDs/HD-DVDs
Duration : 1 h 17 min
Bit rate : 22.9 kb/s
Count of elements : 1448
Stream size : 12.7 MiB (0%)
Language : English
Default : No
Forced : No

Text #2
ID : 4
Format : PGS
Codec ID : S_HDMV/PGS
Codec ID/Info : Picture based subtitle format used on BDs/HD-DVDs
Duration : 1 h 17 min
Bit rate : 26.1 kb/s
Count of elements : 1456
Stream size : 14.5 MiB (0%)
Language : German
Default : No
Forced : No

Text #3
ID : 5
Format : PGS
Codec ID : S_HDMV/PGS
Codec ID/Info : Picture based subtitle format used on BDs/HD-DVDs
Duration : 1 h 17 min
Bit rate : 20.1 kb/s
Count of elements : 1246
Stream size : 11.1 MiB (0%)
Language : Spanish
Default : No
Forced : No

Menu
00:00:00.000 : :00:00:00.000
00:10:58.658 : :00:10:58.658
00:20:04.787 : :00:20:04.787
00:30:57.272 : :00:30:57.272
00:39:01.297 : :00:39:01.297
00:50:22.603 : :00:50:22.603
00:59:42.871 : :00:59:42.871
01:11:56.729 : :01:11:56.729
01:15:05.501 : :01:15:05.501

Source Information



Unique ID : 221122151450165297811194596532572205106 (0xA65A93C8EB17167B9CC2472ED4E93032)
Complete name : Superman Batman - Apocalypse 2010 1080p Blu-ray Remux AVC DTS-HD MA 5.1 - KRaLiMaRKo.mkv
Format : Matroska
Format version : Version 4
File size : 15.0 GiB
Duration : 1 h 18 min
Overall bit rate mode : Variable
Overall bit rate : 27.5 Mb/s
Movie name : Superman Batman - Apocalypse 2010 1080p Blu-ray Remux AVC DTS-HD MA 5.1 - KRaLiMaRKo
Encoded date : UTC 2016-07-06 09:17:09
Writing application : mkvmerge v9.2.0 ('Photograph') 64bit
Writing library : libebml v1.3.3 + libmatroska v1.4.4

Video
ID : 1
Format : VC-1
Format profile : [email protected]
Codec ID : V_MS/VFW/FOURCC / WVC1
Codec ID/Hint : Microsoft
Duration : 1 h 18 min
Bit rate : 23.4 Mb/s
Width : 1 920 pixels
Height : 1 080 pixels
Display aspect ratio : 16:9
Frame rate mode : Constant
Frame rate : 23.976 (24000/1001) FPS
Color space : YUV
Chroma subsampling : 4:2:0
Bit depth : 8 bits
Scan type : Progressive
Compression mode : Lossy
Bits/(Pixel*Frame) : 0.470
Stream size : 12.7 GiB (85%)
Language : English
Default : Yes
Forced : No

Audio
ID : 2
Format : DTS XLL
Format/Info : Digital Theater Systems
Commercial name : DTS-HD Master Audio
Codec ID : A_DTS
Duration : 1 h 18 min
Bit rate mode : Variable
Bit rate : 4 083 kb/s
Channel(s) : 6 channels
Channel layout : C L R Ls Rs LFE
Sampling rate : 48.0 kHz
Frame rate : 93.750 FPS (512 SPF)
Bit depth : 24 bits
Compression mode : Lossless
Stream size : 2.23 GiB (15%)
Language : English
Default : Yes
Forced : No

Text #1
ID : 3
Format : PGS
Codec ID : S_HDMV/PGS
Codec ID/Info : Picture based subtitle format used on BDs/HD-DVDs
Duration : 1 h 17 min
Bit rate : 22.9 kb/s
Count of elements : 1448
Stream size : 12.7 MiB (0%)
Title : SDH
Language : English
Default : Yes
Forced : No

Text #2
ID : 4
Format : PGS
Codec ID : S_HDMV/PGS
Codec ID/Info : Picture based subtitle format used on BDs/HD-DVDs
Duration : 1 h 17 min
Bit rate : 26.1 kb/s
Count of elements : 1456
Stream size : 14.5 MiB (0%)
Title : SDH
Language : German
Default : No
Forced : No

Text #3
ID : 5
Format : PGS
Codec ID : S_HDMV/PGS
Codec ID/Info : Picture based subtitle format used on BDs/HD-DVDs
Duration : 1 h 17 min
Bit rate : 20.1 kb/s
Count of elements : 1246
Stream size : 11.1 MiB (0%)
Title : Latin American Spanish
Language : Spanish
Default : No
Forced : No

Menu
00:00:00.000 : en:00:00:00.000
00:10:58.658 : en:00:10:58.658
00:20:04.787 : en:00:20:04.787
00:30:57.272 : en:00:30:57.272
00:39:01.297 : en:00:39:01.297
00:50:22.603 : en:00:50:22.603
00:59:42.871 : en:00:59:42.871
01:11:56.729 : en:01:11:56.729
01:15:05.501 : en:01:15:05.501

.........................................................................................................................................


Files:

Superman Batman - Apocalypse (2010) 1080p BDRip x265 10bit DTS-HD MA 5.1 - Goki
  • Superman Batman - Apocalypse (2010) 1080p BDRip x265 10bit DTS-HD MA 5.1 - Goki.mkv (4.5 GB)
  • Superman Batman - Apocalypse (2010) 1080p BDRip x265 10bit DTS-HD MA 5.1 - Goki.nfo (6.5 KB)
  • Superman Batman - Apocalypse (2010) 1080p BDRip x265 10bit DTS-HD MA 5.1 - Goki-banner.jpg (177.2 KB)
  • Superman Batman - Apocalypse (2010) 1080p BDRip x265 10bit DTS-HD MA 5.1 - Goki-clearlogo.png (88.1 KB)
  • Superman Batman - Apocalypse (2010) 1080p BDRip x265 10bit DTS-HD MA 5.1 - Goki-disc.png (749.8 KB)
  • Superman Batman - Apocalypse (2010) 1080p BDRip x265 10bit DTS-HD MA 5.1 - Goki-fanart.jpg (843.0 KB)
  • Superman Batman - Apocalypse (2010) 1080p BDRip x265 10bit DTS-HD MA 5.1 - Goki-keyart.jpg (451.7 KB)
  • Superman Batman - Apocalypse (2010) 1080p BDRip x265 10bit DTS-HD MA 5.1 - Goki-logo.png (88.1 KB)
  • Superman Batman - Apocalypse (2010) 1080p BDRip x265 10bit DTS-HD MA 5.1 - Goki-poster.jpg (102.3 KB)
  • Superman Batman - Apocalypse (2010) 1080p BDRip x265 10bit DTS-HD MA 5.1 - Goki-thumb.jpg (176.8 KB)

Comments

Code:

  • udp://tracker.coppersurfer.tk:6969/announce
  • udp://tracker.opentrackr.org:1337/announce
  • udp://tracker.torrent.eu.org:451/announce
  • udp://tracker.internetwarriors.net:1337/announce
  • http://tracker.opentrackr.org:1337/announce
  • udp://denis.stalker.upeer.me:6969/announce
  • udp://tracker.coppersurfer.tk:6969
  • udp://tracker.internetwarriors.net:1337
  • udp://9.rarbg.me:2720/announce
  • udp://explodie.org:6969/announce
  • http://tracker3.itzmx.com:6961/announce
  • udp://tracker.cyberia.is:6969/announce
  • udp://thetracker.org/announce
  • udp://open.demonii.si:1337/announce