Koutetsujou no Kabaneri_(BD720p_HEVC_10bit_SmoodFlamez)

  • Category Anime
  • Type Subbed
  • Language Japanese
  • Total size 3.0 GB
  • Uploaded By smoodflamez
  • Downloads 23
  • Last checked 1 month ago
  • Date uploaded 1 month ago
  • Seeders 0
  • Leechers 0

Infohash : D80EB2A07179C6469CE2261D85FC74DF4053D320

Title
Koutetsujou no Kabaneri

Source
[BlurayDesuYo]


Synopsis
The world is in the midst of the industrial revolution when horrific creatures emerge from a mysterious virus, ripping through the flesh of humans to sate their never-ending appetite. The only way to kill these beings, known as "Kabane," is by destroying their steel-coated hearts. However, if bitten by one of these monsters, the victim is doomed to a fate worse than death, as the fallen rise once more to join the ranks of their fellow undead.

Only the most fortified of civilizations have survived this turmoil, as is the case with the island of Hinomoto, where mankind has created a massive wall to protect themselves from the endless hordes of Kabane. The only way into these giant fortresses is via heavily-armored trains, which are serviced and built by young men such as Ikoma. Having created a deadly weapon that he believes will easily pierce through the hearts of Kabane, Ikoma eagerly awaits the day when he will be able to fight using his new invention. Little does he know, however, that his chance will come much sooner than he expected.


Information
Type: TV
Episodes: 12
Status: Finished Airing
Aired: Apr 8, 2016 to Jul 1, 2016
Premiered: Spring 2016
Broadcast: Fridays at 00:55 (JST)
Producers: Aniplex, Dentsu, Fuji TV, Kyoraku Industrial Holdings, Kansai Telecasting
Licensors: Funimation, Crunchyroll
Studios: Wit Studio
Source: Original
Genres: Action, Horror, Supernatural, Drama, Fantasy
Duration: 22 min. per ep.
Rating: R - 17+ (violence & profanity)


====================================================================

MediaInfo
Video
ID : 1
Format : HEVC
Format/Info : High Efficiency Video Coding
Format profile : Main [email protected]@High
Codec ID : V_MPEGH/ISO/HEVC
Duration : 22 min 49 s
Bit rate : 1 220 kb/s
Width : 1 280 pixels
Height : 720 pixels
Display aspect ratio : 16:9
Frame rate mode : Constant
Frame rate : 23.976 (24000/1001) FPS
Color space : YUV
Chroma subsampling : 4:2:0
Bit depth : 10 bits

Audio
ID : 2
Format : AAC LC SBR
Format/Info : Advanced Audio Codec Low Complexity with Spectral Band Replication
Commercial name : HE-AAC
Format settings : Explicit
Codec ID : A_AAC-2
Duration : 22 min 49 s
Bit rate : 80.0 kb/s
Channel(s) : 2 channels
Channel layout : L R
Sampling rate : 96.0 kHz
Frame rate : 46.875 FPS (2048 SPF)
Compression mode : Lossy
Delay relative to video : 17 ms
Stream size : 13.1 MiB (6%)
Title : Episode
Language : Japanese
Default : Yes
Forced : No

Text
ID : 3
Format : ASS
Codec ID : S_TEXT/ASS
Codec ID/Info : Advanced Sub Station Alpha
Duration : 22 min 41 s
Bit rate : 37.4 kb/s
Count of elements : 4467
Compression mode : Lossless
Stream size : 6.07 MiB (3%)
Language : English
Default : No
Forced : Yes

Menu
00:00:00.000 : en:Intro - 00:00:00.000
00:01:42.990 : en:OP - 00:01:42.990
00:03:12.880 : en:Part A - 00:03:12.880
00:09:09.900 : en:Part B - 00:09:09.900
00:21:19.880 : en:ED - 00:21:19.880

=======================================================================

Screenshots


Files:

Koutetsujou no Kabaneri_(BD720p_HEVC_10bit_SmoodFlamez) Illustrations
  • 1291421-kabaneri-of-the-iron-fortress.jpg (356.6 KB)
  • 1291527-kabaneri-of-the-iron-fortress.jpg (300.9 KB)
  • 1339356-kabaneri-of-the-iron-fortress.jpg (127.7 KB)
  • 1506944-kabaneri-of-the-iron-fortress.jpg (2.8 MB)
  • 1506955-kabaneri-of-the-iron-fortress.jpg (3.2 MB)
  • 1506983-kabaneri-of-the-iron-fortress.jpg (272.6 KB)
  • 1506985-kabaneri-of-the-iron-fortress.jpg (140.1 KB)
  • 1506989-kabaneri-of-the-iron-fortress.jpg (361.7 KB)
  • 1506995-kabaneri-of-the-iron-fortress.jpg (138.1 KB)
  • 1506997-kabaneri-of-the-iron-fortress.jpg (732.3 KB)
  • 1507006-kabaneri-of-the-iron-fortress.jpg (317.0 KB)
  • 1507009-kabaneri-of-the-iron-fortress.jpg (464.5 KB)
  • 1507021-kabaneri-of-the-iron-fortress.jpg (445.1 KB)
  • 1507024-kabaneri-of-the-iron-fortress.jpg (479.4 KB)
  • 4k-fantasy-picture.jpg (656.3 KB)
  • 5060707-kabaneri-of-the-iron-fortress-mumei-kabaneri-of-the-iron-fortress.jpg (3.5 MB)
  • 5060709-ikoma-koutetsujou-no-kabaneri-kabaneri-of-the-iron-fortress-mumei-kabaneri-of-the-iron-fortress.jpg (1.1 MB)
  • 51b784663ed7f5649b4d685b16f715a4.jpg (611.7 KB)
  • 691916.png (1.9 MB)
  • 693190.jpg (1.1 MB)
  • 693357.png (1.6 MB)
  • 699867.png (1.3 MB)
  • 700002.png (2.0 MB)
  • 703595.png (2.3 MB)
  • 703960.png (3.7 MB)
  • 704688.png (418.1 KB)
  • 707570.png (2.6 MB)
  • 720821.png (2.4 MB)
  • D3HDEF.jpg (707.4 KB)
  • kabaneri.jpg (103.0 KB)
  • kabaneri1.png (3.5 MB)
  • Koutetsujou no Kabaneri - 01 (BD720p).mkv (213.0 MB)
  • Koutetsujou no Kabaneri - 02 (BD720p).mkv (254.6 MB)
  • Koutetsujou no Kabaneri - 03 (BD720p).mkv (222.1 MB)
  • Koutetsujou no Kabaneri - 04 (BD720p).mkv (308.3 MB)
  • Koutetsujou no Kabaneri - 05 (BD720p).mkv (217.9 MB)
  • Koutetsujou no Kabaneri - 06 (BD720p).mkv (261.9 MB)
  • Koutetsujou no Kabaneri - 07 (BD720p).mkv (221.2 MB)
  • Koutetsujou no Kabaneri - 08 (BD720p).mkv (249.9 MB)
  • Koutetsujou no Kabaneri - 09 (BD720p).mkv (257.8 MB)
  • Koutetsujou no Kabaneri - 10 (BD720p).mkv (217.1 MB)
  • Koutetsujou no Kabaneri - 11 (BD720p).mkv (238.2 MB)
  • Koutetsujou no Kabaneri - 12 (BD720p).mkv (237.1 MB)
  • Koutetsujou no Kabaneri - NCED1 (BD720p).mkv (45.0 MB)
  • Koutetsujou no Kabaneri - NCOP1 (BD720p).mkv (35.6 MB)
  • Koutetsujou no Kabaneri - NCOP2 (BD720p).mkv (45.5 MB)
  • Screenshots
    • 2019-09-05_210910.png (1.7 MB)
    • 2019-09-05_211031.png (1.3 MB)
    • 2019-09-05_211044.png (1.9 MB)
    • 2019-09-05_211120.png (1.7 MB)

There are currently no comments. Feel free to leave one :)

Code:

  • http://nyaa.tracker.wf:7777/announce
  • UDP://TRACKER.ZER0DAY.TO:1337/ANNOUNCE
  • UDP://EDDIE4.NL:6969/ANNOUNCE
  • udp://tracker.opentrackr.org:1337/announce