Dragon Ball Z - Lord Slug (1991) 1080p BDRip x265 10bit TrueHD 5....

  • Category Anime
  • Type Dual Audio
  • Language English
  • Total size 4.5 GB
  • Uploaded By Goki
  • Downloads 34
  • Last checked 4 weeks ago
  • Date uploaded 1 month ago
  • Seeders 2
  • Leechers 3

Infohash : E5481A6929D906BCBD3E4BF9FF0C053D86AB2855




Dragon Ball Z - Lord Slug (1991) IMDB

Screenshots














Media Information



Unique ID : 13275021541183710773959962869973228752 (0x9FCAD18282AFAB898C8FABE66059CD0)
Complete name : Dragon Ball Z - Lord Slug (1991) 1080p BDRip x265 10bit TrueHD 5.1 - Goki.mkv
Format : Matroska
Format version : Version 4
File size : 4.53 GiB
Duration : 52 min 1 s
Overall bit rate mode : Variable
Overall bit rate : 12.5 Mb/s
Movie name : Dragon Ball Z - Lord Slug (1991) 1080p BDRip x265 10bit TrueHD 5.1 - Goki
Encoded date : UTC 2019-09-17 23:13:09
Writing application : mkvmerge v28.2.0 ('The Awakening') 64-bit
Writing library : libebml v1.3.6 + libmatroska v1.4.9

Video
ID : 1
Format : HEVC
Format/Info : High Efficiency Video Coding
Format profile : Main [email protected]@Main
Codec ID : V_MPEGH/ISO/HEVC
Duration : 52 min 1 s
Bit rate : 8 468 kb/s
Width : 1 920 pixels
Height : 1 080 pixels
Display aspect ratio : 16:9
Frame rate mode : Constant
Frame rate : 23.976 (24000/1001) FPS
Color space : YUV
Chroma subsampling : 4:2:0
Bit depth : 10 bits
Bits/(Pixel*Frame) : 0.170
Stream size : 3.08 GiB (68%)
Writing library : x265 2.9+8-27d8424c799d:[Windows][MSVC 1915][64 bit] 10bit
Encoding settings : cpuid=1111039 / frame-threads=2 / numa-pools=4 / wpp / no-pmode / no-pme / no-psnr / no-ssim / log-level=2 / input-csp=1 / input-res=1920x1080 / interlace=0 / total-frames=0 / level-idc=0 / high-tier=1 / uhd-bd=0 / ref=4 / no-allow-non-conformance / no-repeat-headers / annexb / no-aud / no-hrd / info / hash=0 / no-temporal-layers / open-gop / min-keyint=23 / keyint=250 / gop-lookahead=0 / bframes=8 / b-adapt=2 / b-pyramid / bframe-bias=0 / rc-lookahead=100 / lookahead-slices=4 / scenecut=40 / radl=0 / no-intra-refresh / ctu=64 / min-cu-size=8 / no-rect / no-amp / max-tu-size=32 / tu-inter-depth=2 / tu-intra-depth=2 / limit-tu=4 / rdoq-level=2 / dynamic-rd=0.00 / no-ssim-rd / signhide / no-tskip / nr-intra=0 / nr-inter=0 / no-constrained-intra / no-strong-intra-smoothing / max-merge=3 / limit-refs=2 / limit-modes / me=3 / subme=5 / merange=57 / temporal-mvp / weightp / weightb / no-analyze-src-pics / deblock=0:0 / sao / no-sao-non-deblock / rd=6 / no-early-skip / rskip / no-fast-intra / no-tskip-fast / no-cu-lossless / b-intra / no-splitrd-skip / rdpenalty=0 / psy-rd=1.30 / psy-rdoq=2.00 / no-rd-refine / no-lossless / cbqpoffs=0 / crqpoffs=0 / rc=crf / crf=18.0 / qcomp=0.60 / qpstep=4 / stats-write=0 / stats-read=0 / ipratio=1.40 / pbratio=1.30 / aq-mode=2 / aq-strength=1.10 / cutree / zone-count=0 / no-strict-cbr / qg-size=32 / no-rc-grain / qpmax=69 / qpmin=0 / no-const-vbv / sar=1 / overscan=0 / videoformat=5 / range=0 / colorprim=2 / transfer=2 / colormatrix=2 / chromaloc=0 / display-window=0 / max-cll=0,0 / min-luma=0 / max-luma=1023 / log2-max-poc-lsb=8 / vui-timing-info / vui-hrd-info / slices=1 / no-opt-qp-pps / no-opt-ref-list-length-pps / no-multi-pass-opt-rps / scenecut-bias=0.05 / no-opt-cu-delta-qp / no-aq-motion / no-hdr / no-hdr-opt / no-dhdr10-opt / no-idr-recovery-sei / analysis-reuse-level=5 / scale-factor=0 / refine-intra=0 / refine-inter=0 / refine-mv=0 / no-limit-sao / ctu-info=0 / no-lowpass-dct / refine-mv-type=0 / copy-pic=1 / max-ausize-factor=1.0 / no-dynamic-refine / no-single-sei
Language : English
Default : Yes
Forced : No

Audio #1
ID : 2
Format : MLP FBA
Format/Info : Meridian Lossless Packing FBA
Commercial name : Dolby TrueHD
Codec ID : A_TRUEHD
Duration : 52 min 1 s
Bit rate mode : Variable
Bit rate : 1 539 kb/s
Maximum bit rate : 2 304 kb/s
Channel(s) : 6 channels
Channel layout : L R C LFE Ls Rs
Sampling rate : 48.0 kHz
Frame rate : 1 200.000 FPS (40 SPF)
Compression mode : Lossless
Stream size : 573 MiB (12%)
Title : Surround 5.1
Language : English
Default : Yes
Forced : No

Audio #2
ID : 3
Format : MLP FBA
Format/Info : Meridian Lossless Packing FBA
Commercial name : Dolby TrueHD
Codec ID : A_TRUEHD
Duration : 52 min 1 s
Bit rate mode : Variable
Bit rate : 1 672 kb/s
Maximum bit rate : 2 325 kb/s
Channel(s) : 6 channels
Channel layout : L R C LFE Ls Rs
Sampling rate : 48.0 kHz
Frame rate : 1 200.000 FPS (40 SPF)
Compression mode : Lossless
Stream size : 622 MiB (13%)
Title : Surround 5.1
Language : English
Default : No
Forced : No

Audio #3
ID : 4
Format : AC-3
Format/Info : Audio Coding 3
Commercial name : Dolby Digital
Codec ID : A_AC3
Duration : 52 min 1 s
Bit rate mode : Constant
Bit rate : 640 kb/s
Channel(s) : 2 channels
Channel layout : L R
Sampling rate : 48.0 kHz
Frame rate : 31.250 FPS (1536 SPF)
Bit depth : 16 bits
Compression mode : Lossy
Stream size : 238 MiB (5%)
Title : Stereo
Language : Japanese
Service kind : Complete Main
Default : No
Forced : No

Text #1
ID : 5
Format : PGS
Codec ID : S_HDMV/PGS
Codec ID/Info : Picture based subtitle format used on BDs/HD-DVDs
Duration : 51 min 32 s
Bit rate : 20.2 kb/s
Count of elements : 618
Stream size : 7.45 MiB (0%)
Language : English
Default : No
Forced : No

Text #2
ID : 6
Format : PGS
Codec ID : S_HDMV/PGS
Codec ID/Info : Picture based subtitle format used on BDs/HD-DVDs
Duration : 51 min 32 s
Bit rate : 1 930 b/s
Count of elements : 37
Stream size : 729 KiB (0%)
Language : English
Default : No
Forced : No

Menu
00:00:00.000 : en:Chapter 01
00:02:03.873 : en:Chapter 02
00:04:41.364 : en:Chapter 03
00:08:20.917 : en:Chapter 04
00:12:45.014 : en:Chapter 05
00:17:06.734 : en:Chapter 06
00:21:45.012 : en:Chapter 07
00:30:01.508 : en:Chapter 08
00:34:52.048 : en:Chapter 09
00:39:18.356 : en:Chapter 10
00:43:45.789 : en:Chapter 11
00:50:14.344 : en:Chapter 12
00:51:50.107 : en:Chapter 13
00:52:00.117 : en:Chapter 14

Source Information



Unique ID : 181371408045656677964762374142698656043 (0x8872DCD21D1B6C4333BA46CBC32F112B)
Complete name : DBZ_Lord Slug_t02.mkv
Format : Matroska
Format version : Version 2
File size : 8.41 GiB
Duration : 52 min 1 s
Overall bit rate mode : Variable
Overall bit rate : 23.2 Mb/s
Movie name : DBZ_Tree of Might_Lord Slug
Encoded date : UTC 2019-09-10 01:35:29
Writing application : MakeMKV v1.14.2 win(x64-release)
Writing library : libmakemkv v1.14.2 (1.3.5/1.4.7) win(x64-release)

Video
ID : 1
ID in the original source medium : 4113 (0x1011)
Format : AVC
Format/Info : Advanced Video Codec
Format profile : [email protected]
Format settings : CABAC / 4 Ref Frames
Format settings, CABAC : Yes
Format settings, RefFrames : 4 frames
Codec ID : V_MPEG4/ISO/AVC
Duration : 52 min 1 s
Bit rate mode : Variable
Bit rate : 18.0 Mb/s
Maximum bit rate : 38.0 Mb/s
Width : 1 920 pixels
Height : 1 080 pixels
Display aspect ratio : 16:9
Frame rate mode : Constant
Frame rate : 23.976 (24000/1001) FPS
Color space : YUV
Chroma subsampling : 4:2:0
Bit depth : 8 bits
Scan type : Progressive
Bits/(Pixel*Frame) : 0.362
Stream size : 6.53 GiB (78%)
Language : English
Default : No
Forced : No
Color range : Limited
Color primaries : BT.709
Transfer characteristics : BT.709
Matrix coefficients : BT.709
Original source medium : Blu-ray

Audio #1
ID : 2
ID in the original source medium : 4352 (0x1100)
Format : MLP FBA
Format/Info : Meridian Lossless Packing FBA
Commercial name : Dolby TrueHD
Codec ID : A_TRUEHD
Duration : 52 min 1 s
Bit rate mode : Variable
Bit rate : 1 539 kb/s
Maximum bit rate : 2 304 kb/s
Channel(s) : 6 channels
Channel layout : L R C LFE Ls Rs
Sampling rate : 48.0 kHz
Frame rate : 1 200.000 FPS (40 SPF)
Bit depth : 24 bits
Compression mode : Lossless
Stream size : 573 MiB (7%)
Title : Surround 5.1
Language : English
Default : Yes
Forced : No
Original source medium : Blu-ray

Audio #2
ID : 3
ID in the original source medium : 4352 (0x1100)
Format : AC-3
Format/Info : Audio Coding 3
Commercial name : Dolby Digital
Codec ID : A_AC3
Duration : 52 min 1 s
Bit rate mode : Constant
Bit rate : 640 kb/s
Channel(s) : 6 channels
Channel layout : L R C LFE Ls Rs
Sampling rate : 48.0 kHz
Frame rate : 31.250 FPS (1536 SPF)
Bit depth : 16 bits
Compression mode : Lossy
Stream size : 238 MiB (3%)
Title : Surround 5.1
Language : English
Service kind : Complete Main
Default : No
Forced : No
Original source medium : Blu-ray

Audio #3
ID : 4
ID in the original source medium : 4353 (0x1101)
Format : MLP FBA
Format/Info : Meridian Lossless Packing FBA
Commercial name : Dolby TrueHD
Codec ID : A_TRUEHD
Duration : 52 min 1 s
Bit rate mode : Variable
Bit rate : 1 672 kb/s
Maximum bit rate : 2 325 kb/s
Channel(s) : 6 channels
Channel layout : L R C LFE Ls Rs
Sampling rate : 48.0 kHz
Frame rate : 1 200.000 FPS (40 SPF)
Bit depth : 24 bits
Compression mode : Lossless
Stream size : 622 MiB (7%)
Title : Surround 5.1
Language : English
Default : No
Forced : No
Original source medium : Blu-ray

Audio #4
ID : 5
ID in the original source medium : 4353 (0x1101)
Format : AC-3
Format/Info : Audio Coding 3
Commercial name : Dolby Digital
Codec ID : A_AC3
Duration : 52 min 1 s
Bit rate mode : Constant
Bit rate : 640 kb/s
Channel(s) : 6 channels
Channel layout : L R C LFE Ls Rs
Sampling rate : 48.0 kHz
Frame rate : 31.250 FPS (1536 SPF)
Bit depth : 16 bits
Compression mode : Lossy
Stream size : 238 MiB (3%)
Title : Surround 5.1
Language : English
Service kind : Complete Main
Default : No
Forced : No
Original source medium : Blu-ray

Audio #5
ID : 6
ID in the original source medium : 4354 (0x1102)
Format : AC-3
Format/Info : Audio Coding 3
Commercial name : Dolby Digital
Codec ID : A_AC3
Duration : 52 min 1 s
Bit rate mode : Constant
Bit rate : 640 kb/s
Channel(s) : 2 channels
Channel layout : L R
Sampling rate : 48.0 kHz
Frame rate : 31.250 FPS (1536 SPF)
Bit depth : 16 bits
Compression mode : Lossy
Stream size : 238 MiB (3%)
Title : Stereo
Language : Japanese
Service kind : Complete Main
Default : No
Forced : No
Original source medium : Blu-ray

Text #1
ID : 7
ID in the original source medium : 4608 (0x1200)
Format : PGS
Codec ID : S_HDMV/PGS
Codec ID/Info : Picture based subtitle format used on BDs/HD-DVDs
Duration : 51 min 32 s
Bit rate : 20.2 kb/s
Count of elements : 618
Stream size : 7.45 MiB (0%)
Language : English
Default : No
Forced : No
Original source medium : Blu-ray

Text #2
ID : 9
ID in the original source medium : 4609 (0x1201)
Format : PGS
Codec ID : S_HDMV/PGS
Codec ID/Info : Picture based subtitle format used on BDs/HD-DVDs
Duration : 51 min 32 s
Bit rate : 1 930 b/s
Count of elements : 37
Stream size : 729 KiB (0%)
Language : English
Default : No
Forced : No
Original source medium : Blu-ray

Menu
00:00:00.000 : en:Chapter 01
00:02:03.873 : en:Chapter 02
00:04:41.364 : en:Chapter 03
00:08:20.917 : en:Chapter 04
00:12:45.014 : en:Chapter 05
00:17:06.734 : en:Chapter 06
00:21:45.012 : en:Chapter 07
00:30:01.508 : en:Chapter 08
00:34:52.048 : en:Chapter 09
00:39:18.356 : en:Chapter 10
00:43:45.789 : en:Chapter 11
00:50:14.344 : en:Chapter 12
00:51:50.107 : en:Chapter 13
00:52:00.117 : en:Chapter 14

.........................................................................................................................................


Files:

Dragon Ball Z - Lord Slug (1991) 1080p BDRip x265 10bit TrueHD 5.1 - Goki
  • Dragon Ball Z - Lord Slug (1991) 1080p BDRip x265 10bit TrueHD 5.1 - Goki.mkv (4.5 GB)
  • Dragon Ball Z - Lord Slug (1991) 1080p BDRip x265 10bit TrueHD 5.1 - Goki.nfo (4.8 KB)
  • Dragon Ball Z - Lord Slug (1991) 1080p BDRip x265 10bit TrueHD 5.1 - Goki-clearlogo.png (155.6 KB)
  • Dragon Ball Z - Lord Slug (1991) 1080p BDRip x265 10bit TrueHD 5.1 - Goki-fanart.jpg (284.2 KB)
  • Dragon Ball Z - Lord Slug (1991) 1080p BDRip x265 10bit TrueHD 5.1 - Goki-logo.png (155.6 KB)
  • Dragon Ball Z - Lord Slug (1991) 1080p BDRip x265 10bit TrueHD 5.1 - Goki-poster.jpg (110.9 KB)

There are currently no comments. Feel free to leave one :)

Code:

  • udp://tracker.coppersurfer.tk:6969/announce
  • udp://tracker.opentrackr.org:1337/announce
  • udp://tracker.torrent.eu.org:451/announce
  • udp://tracker.internetwarriors.net:1337/announce
  • http://tracker.opentrackr.org:1337/announce
  • udp://denis.stalker.upeer.me:6969/announce
  • udp://tracker.coppersurfer.tk:6969
  • udp://tracker.internetwarriors.net:1337
  • udp://9.rarbg.me:2720/announce
  • udp://explodie.org:6969/announce
  • http://tracker3.itzmx.com:6961/announce
  • udp://tracker.cyberia.is:6969/announce
  • udp://thetracker.org/announce
  • udp://open.demonii.si:1337/announce