Karna Zarurihai (Chaarmsukh E04) (2019) Hindi 1080p HDRip

  • Category Movies
  • Type Bollywood
  • Language Hindi
  • Total size 395.1 MB
  • Uploaded By krishh1337
  • Downloads 11496
  • Last checked 4 weeks ago
  • Date uploaded 1 month ago
  • Seeders 39
  • Leechers 5

Infohash : 7A35D1CF59938B10CB9CF702634CA9E5A61A8EFD



Charmsukh E04 ( Karna Zaruri Hai ):

Storyline
Infatuation is something we all have experienced in our lives.
It can happen anywhere anytime for that one special person.
Watch how a passionate couple struggles for a place to make out and how they end up doing unexpected?,
Charamsukh story of a passionate couple "Karna Zaruri Hai".

Cast
V'DYUT XAVIIER, KASTURI CHHETRI, DINESH PARMAR
Director
Rohit Anand

Format : Matroska
Format version : Version 4
File size : 395 MiB
Duration : 17 min 19 s
Overall bit rate : 3 188 kb/s
Encoder : BADSHAH

Video
ID : 1
Format : AVC
Format/Info : Advanced Video Codec
Format profile : [email protected]
Format settings : CABAC / 4 Ref Frames
Format settings, CABAC : Yes
Format settings, ReFrames : 4 frames
Codec ID : V_MPEG4/ISO/AVC
Duration : 17 min 19 s
Bit rate : 3 060 kb/s
Width : 1 920 pixels
Height : 1 080 pixels
Display aspect ratio : 16:9
Frame rate mode : Constant
Frame rate : 25.000 FPS
Color space : YUV
Chroma subsampling : 4:2:0
Bit depth : 8 bits
Scan type : Progressive
Bits/(Pixel*Frame) : 0.059
Stream size : 379 MiB (96%)

Audio
ID : 2
Format : AAC LC
Format/Info : Advanced Audio Codec Low Complexity
Codec ID : A_AAC-2
Duration : 17 min 19 s
Bit rate : 126 kb/s
Channel(s) : 2 channels
Channel layout : L R
Sampling rate : 44.1 kHz
Frame rate : 43.066 FPS (1024 SPF)
Compression mode : Lossy
Stream size : 15.6 MiB (4%)
Language : Hindi
Default : Yes
Forced : No

Files:

  • Karna Zarurihai (Chaarmsukh E04) (2019) Hindi 1080p HDRip.mkv (395.1 MB)

Comments

Code:

  • udp://tracker.openbittorrent.com:80/announce
  • udp://tracker.opentrackr.org:1337/annouce
  • udp://tracker.leechers-paradise.org:6969/announce
  • udp://tracker.coppersurfer.tk:6969/announce
  • udp://retracker.baikal-telecom.net:2710/announce
  • udp://open.demonii.si:1337/announce
  • udp://tracker.internetwarriors.net:1337/announce
  • udp://tracker.uw0.xyz:6969/announce
  • udp://bt.xxx-tracker.com:2710/announce
  • udp://retracker.akado-ural.ru:80/announce
  • udp://tracker.supertracker.net:1337/announce
  • udp://retracker.maxnet.ua:80/announce
  • UDP://TRACKER.LEECHERS-PARADISE.ORG:6969/ANNOUNCE
  • UDP://TRACKER.COPPERSURFER.TK:6969/ANNOUNCE
  • UDP://TRACKER.OPENTRACKR.ORG:1337/ANNOUNCE
  • UDP://TRACKER.ZER0DAY.TO:1337/ANNOUNCE
  • UDP://EDDIE4.NL:6969/ANNOUNCE