Porco Rosso (1992) 1080p BDRip x265 10bit FLAC 2.0 - Goki

  • Category Anime
  • Type Dual Audio
  • Language English
  • Total size 10.3 GB
  • Uploaded By Goki
  • Downloads 21
  • Last checked 3 weeks ago
  • Date uploaded 1 month ago
  • Seeders 1
  • Leechers 6

Infohash : 3B801273AA758770F6B510730D2F6E754E61B641




Porco Rosso (1992) IMDB

Screenshots














Media Information



Unique ID                                : 133481776523456007491081143136517570786 (0x646BA7B0F0DAB06B7AFC551C974340E2)
Complete name                            : Porco Rosso (1992) 1080p BDRip x265 10bit FLAC 2.0 - Goki.mkv
Format                                   : Matroska
Format version                           : Version 4
File size                                : 10.3 GiB
Duration                                 : 1 h 33 min
Overall bit rate mode                    : Variable
Overall bit rate                         : 15.9 Mb/s
Movie name                               : Porco Rosso (1992) 1080p BDRip x265 10bit FLAC 2.0 - Goki
Encoded date                             : UTC 2019-09-21 00:09:58
Writing application                      : mkvmerge v28.2.0 ('The Awakening') 64-bit
Writing library                          : libebml v1.3.6 + libmatroska v1.4.9

Video
ID                                       : 1
Format                                   : HEVC
Format/Info                              : High Efficiency Video Coding
Format profile                           : Main [email protected]@Main
Codec ID                                 : V_MPEGH/ISO/HEVC
Duration                                 : 1 h 33 min
Bit rate                                 : 13.5 Mb/s
Width                                    : 1 920 pixels
Height                                   : 1 080 pixels
Display aspect ratio                     : 16:9
Frame rate mode                          : Constant
Frame rate                               : 23.976 (24000/1001) FPS
Color space                              : YUV
Chroma subsampling                       : 4:2:0
Bit depth                                : 10 bits
Bits/(Pixel*Frame)                       : 0.271
Stream size                              : 8.79 GiB (85%)
Writing library                          : x265 2.9+8-27d8424c799d:[Windows][MSVC 1915][64 bit] 10bit
Encoding settings                        : cpuid=1111039 / frame-threads=3 / numa-pools=8 / wpp / no-pmode / no-pme / no-psnr / no-ssim / log-level=2 / input-csp=1 / input-res=1920x1080 / interlace=0 / total-frames=0 / level-idc=0 / high-tier=1 / uhd-bd=0 / ref=4 / no-allow-non-conformance / no-repeat-headers / annexb / no-aud / no-hrd / info / hash=0 / no-temporal-layers / open-gop / min-keyint=23 / keyint=250 / gop-lookahead=0 / bframes=8 / b-adapt=2 / b-pyramid / bframe-bias=0 / rc-lookahead=100 / lookahead-slices=4 / scenecut=40 / radl=0 / no-intra-refresh / ctu=64 / min-cu-size=8 / no-rect / no-amp / max-tu-size=32 / tu-inter-depth=2 / tu-intra-depth=2 / limit-tu=4 / rdoq-level=2 / dynamic-rd=0.00 / no-ssim-rd / signhide / no-tskip / nr-intra=0 / nr-inter=0 / no-constrained-intra / no-strong-intra-smoothing / max-merge=3 / limit-refs=2 / limit-modes / me=3 / subme=5 / merange=57 / temporal-mvp / weightp / weightb / no-analyze-src-pics / deblock=0:0 / sao / no-sao-non-deblock / rd=6 / no-early-skip / rskip / no-fast-intra / no-tskip-fast / no-cu-lossless / b-intra / no-splitrd-skip / rdpenalty=0 / psy-rd=1.30 / psy-rdoq=2.00 / no-rd-refine / no-lossless / cbqpoffs=0 / crqpoffs=0 / rc=crf / crf=17.0 / qcomp=0.60 / qpstep=4 / stats-write=0 / stats-read=0 / ipratio=1.40 / pbratio=1.30 / aq-mode=2 / aq-strength=1.10 / cutree / zone-count=0 / no-strict-cbr / qg-size=32 / no-rc-grain / qpmax=69 / qpmin=0 / no-const-vbv / sar=1 / overscan=0 / videoformat=5 / range=0 / colorprim=2 / transfer=2 / colormatrix=2 / chromaloc=0 / display-window=0 / max-cll=0,0 / min-luma=0 / max-luma=1023 / log2-max-poc-lsb=8 / vui-timing-info / vui-hrd-info / slices=1 / no-opt-qp-pps / no-opt-ref-list-length-pps / no-multi-pass-opt-rps / scenecut-bias=0.05 / no-opt-cu-delta-qp / no-aq-motion / no-hdr / no-hdr-opt / no-dhdr10-opt / no-idr-recovery-sei / analysis-reuse-level=5 / scale-factor=0 / refine-intra=0 / refine-inter=0 / refine-mv=0 / no-limit-sao / ctu-info=0 / no-lowpass-dct / refine-mv-type=0 / copy-pic=1 / max-ausize-factor=1.0 / no-dynamic-refine / no-single-sei
Language                                 : Japanese
Default                                  : No
Forced                                   : No

Audio #1
ID                                       : 2
Format                                   : FLAC
Format/Info                              : Free Lossless Audio Codec
Codec ID                                 : A_FLAC
Duration                                 : 1 h 33 min
Bit rate mode                            : Variable
Bit rate                                 : 655 kb/s
Channel(s)                               : 2 channels
Channel layout                           : L R
Sampling rate                            : 48.0 kHz
Frame rate                               : 10.417 FPS (4608 SPF)
Bit depth                                : 16 bits
Compression mode                         : Lossless
Stream size                              : 437 MiB (4%)
Title                                    : 2.0
Writing library                          : MakeMKV v1.14.4 win(x64-release)
Language                                 : English
Default                                  : Yes
Forced                                   : No

Audio #2
ID                                       : 3
Format                                   : FLAC
Format/Info                              : Free Lossless Audio Codec
Codec ID                                 : A_FLAC
Duration                                 : 1 h 33 min
Bit rate mode                            : Variable
Bit rate                                 : 1 492 kb/s
Channel(s)                               : 2 channels
Channel layout                           : L R
Sampling rate                            : 48.0 kHz
Frame rate                               : 10.417 FPS (4608 SPF)
Bit depth                                : 24 bits
Compression mode                         : Lossless
Stream size                              : 996 MiB (9%)
Title                                    : 2.0
Writing library                          : MakeMKV v1.14.4 win(x64-release)
Language                                 : Japanese
Default                                  : No
Forced                                   : No

Text #1
ID                                       : 4
Format                                   : PGS
Codec ID                                 : S_HDMV/PGS
Codec ID/Info                            : Picture based subtitle format used on BDs/HD-DVDs
Duration                                 : 1 h 33 min
Bit rate                                 : 30.5 kb/s
Count of elements                        : 1813
Stream size                              : 20.3 MiB (0%)
Language                                 : English
Default                                  : No
Forced                                   : No

Text #2
ID                                       : 5
Format                                   : PGS
Codec ID                                 : S_HDMV/PGS
Codec ID/Info                            : Picture based subtitle format used on BDs/HD-DVDs
Duration                                 : 1 h 31 min
Bit rate                                 : 32.5 kb/s
Count of elements                        : 2784
Stream size                              : 21.3 MiB (0%)
Language                                 : Japanese
Default                                  : No
Forced                                   : No

Text #3
ID                                       : 6
Format                                   : PGS
Codec ID                                 : S_HDMV/PGS
Codec ID/Info                            : Picture based subtitle format used on BDs/HD-DVDs
Duration                                 : 1 h 33 min
Bit rate                                 : 32.2 kb/s
Count of elements                        : 1662
Stream size                              : 21.4 MiB (0%)
Language                                 : French
Default                                  : No
Forced                                   : No

Text #4
ID                                       : 7
Format                                   : PGS
Codec ID                                 : S_HDMV/PGS
Codec ID/Info                            : Picture based subtitle format used on BDs/HD-DVDs
Duration                                 : 1 h 28 min
Bit rate                                 : 44.8 kb/s
Count of elements                        : 1591
Stream size                              : 28.4 MiB (0%)
Language                                 : German
Default                                  : No
Forced                                   : No

Text #5
ID                                       : 8
Format                                   : PGS
Codec ID                                 : S_HDMV/PGS
Codec ID/Info                            : Picture based subtitle format used on BDs/HD-DVDs
Duration                                 : 1 h 33 min
Bit rate                                 : 21.3 kb/s
Count of elements                        : 2228
Stream size                              : 14.2 MiB (0%)
Language                                 : Korean
Default                                  : No
Forced                                   : No

Text #6
ID                                       : 9
Format                                   : PGS
Codec ID                                 : S_HDMV/PGS
Codec ID/Info                            : Picture based subtitle format used on BDs/HD-DVDs
Duration                                 : 1 h 33 min
Bit rate                                 : 32.6 kb/s
Count of elements                        : 2134
Stream size                              : 21.7 MiB (0%)
Language                                 : Chinese
Default                                  : No
Forced                                   : No

Text #7
ID                                       : 10
Format                                   : PGS
Codec ID                                 : S_HDMV/PGS
Codec ID/Info                            : Picture based subtitle format used on BDs/HD-DVDs
Duration                                 : 1 h 32 min
Bit rate                                 : 29.0 kb/s
Count of elements                        : 2167
Stream size                              : 19.2 MiB (0%)
Language                                 : Chinese
Default                                  : No
Forced                                   : No

Menu
00:00:00.000                             : :00:00:00.000
00:05:43.176                             : :00:05:43.176
00:09:16.597                             : :00:09:16.598
00:15:33.182                             : :00:15:33.182
00:21:47.889                             : :00:21:43.552
00:27:14.924                             : :00:27:14.925
00:31:35.059                             : :00:31:34.351
00:36:12.128                             : :00:36:12.128
00:41:49.381                             : :00:41:49.382
00:44:57.569                             : :00:44:57.570
00:49:06.234                             : :00:49:01.605
00:54:11.289                             : :00:54:11.290
00:58:52.070                             : :00:58:46.940
01:04:35.705                             : :01:04:35.705
01:08:55.965                             : :01:08:55.965
01:14:12.823                             : :01:14:06.901
01:19:09.161                             : :01:19:09.161
01:24:21.890                             : :01:24:18.512
01:29:33.451                             : :01:29:23.692

Source Information



Unique ID                                : 222605288634188277151931155710360488252 (0xA7783817FBB3636E8600BFA3CDB9093C)
Complete name                            : Porco Rosso 1992 1080p JPN MGVC Bluray Remux AVC DTS-MA - BluDragon.mkv
Format                                   : Matroska
Format version                           : Version 4
File size                                : 28.2 GiB
Duration                                 : 1 h 33 min
Overall bit rate mode                    : Variable
Overall bit rate                         : 43.2 Mb/s
Encoded date                             : UTC 2014-08-18 04:07:04
Writing application                      : mkvmerge v7.1.0 ('Good Love') 64bit built on Jul 27 2014 13:06:55
Writing library                          : libebml v1.3.0 + libmatroska v1.4.1

Video
ID                                       : 1
Format                                   : AVC
Format/Info                              : Advanced Video Codec
Format profile                           : [email protected]
Format settings                          : CABAC / 2 Ref Frames
Format settings, CABAC                   : Yes
Format settings, RefFrames               : 2 frames
Format settings, GOP                     : M=3, N=24
Codec ID                                 : V_MPEG4/ISO/AVC
Duration                                 : 1 h 33 min
Bit rate                                 : 38.3 Mb/s
Width                                    : 1 920 pixels
Height                                   : 1 080 pixels
Display aspect ratio                     : 16:9
Frame rate mode                          : Constant
Frame rate                               : 23.976 (24000/1001) FPS
Color space                              : YUV
Chroma subsampling                       : 4:2:0
Bit depth                                : 8 bits
Scan type                                : Progressive
Bits/(Pixel*Frame)                       : 0.770
Stream size                              : 24.9 GiB (89%)
Title                                    : MPEG-4 AVC Video / 38,259 kbps / 1080p / 23.976 fps / 16:9 / High Profile 4.1
Language                                 : Japanese
Default                                  : Yes
Forced                                   : No

Audio #1
ID                                       : 2
Format                                   : PCM
Format settings                          : Little / Signed
Codec ID                                 : A_PCM/INT/LIT
Duration                                 : 1 h 33 min
Bit rate mode                            : Constant
Bit rate                                 : 1 536 kb/s
Channel(s)                               : 2 channels
Sampling rate                            : 48.0 kHz
Frame rate                               : 32.000 FPS (1500 SPF)
Bit depth                                : 16 bits
Delay relative to video                  : 496 ms
Stream size                              : 1.00 GiB (4%)
Title                                    : LPCM Audio / 2.0 / 48 kHz / 1,536 kbps / 16-bit
Language                                 : English
Default                                  : Yes
Forced                                   : No

Audio #2
ID                                       : 3
Format                                   : DTS XLL
Format/Info                              : Digital Theater Systems
Commercial name                          : DTS-HD Master Audio
Codec ID                                 : A_DTS
Duration                                 : 1 h 33 min
Bit rate mode                            : Variable
Bit rate                                 : 2 164 kb/s
Channel(s)                               : 2 channels
Sampling rate                            : 48.0 kHz
Frame rate                               : 93.750 FPS (512 SPF)
Bit depth                                : 24 bits
Compression mode                         : Lossless
Delay relative to video                  : -4 ms
Stream size                              : 1.41 GiB (5%)
Title                                    : DTS-HD Master Audio / 2.0 / 48 kHz / 2,164 kbps / 24-bit (DTS Core: 2.0 / 48 kHz / 1,509 kbps / 24-bit)
Language                                 : Japanese
Default                                  : No
Forced                                   : No

Audio #3
ID                                       : 4
Format                                   : AC-3
Format/Info                              : Audio Coding 3
Commercial name                          : Dolby Digital
Codec ID                                 : A_AC3
Duration                                 : 1 h 33 min
Bit rate mode                            : Constant
Bit rate                                 : 192 kb/s
Channel(s)                               : 2 channels
Channel layout                           : L R
Sampling rate                            : 48.0 kHz
Frame rate                               : 31.250 FPS (1536 SPF)
Bit depth                                : 16 bits
Compression mode                         : Lossy
Delay relative to video                  : -4 ms
Stream size                              : 128 MiB (0%)
Title                                    : Dolby Digital Audio / 2.0 / 48 kHz / 192 kbps / Dolby Surround
Language                                 : French
Service kind                             : Complete Main
Default                                  : No
Forced                                   : No

Audio #4
ID                                       : 5
Format                                   : AC-3
Format/Info                              : Audio Coding 3
Commercial name                          : Dolby Digital
Codec ID                                 : A_AC3
Duration                                 : 1 h 33 min
Bit rate mode                            : Constant
Bit rate                                 : 192 kb/s
Channel(s)                               : 2 channels
Channel layout                           : L R
Sampling rate                            : 48.0 kHz
Frame rate                               : 31.250 FPS (1536 SPF)
Bit depth                                : 16 bits
Compression mode                         : Lossy
Delay relative to video                  : -4 ms
Stream size                              : 128 MiB (0%)
Title                                    : Dolby Digital Audio / 2.0 / 48 kHz / 192 kbps / Dolby Surround
Language                                 : German
Service kind                             : Complete Main
Default                                  : No
Forced                                   : No

Audio #5
ID                                       : 6
Format                                   : AC-3
Format/Info                              : Audio Coding 3
Commercial name                          : Dolby Digital
Codec ID                                 : A_AC3
Duration                                 : 1 h 33 min
Bit rate mode                            : Constant
Bit rate                                 : 192 kb/s
Channel(s)                               : 2 channels
Channel layout                           : L R
Sampling rate                            : 48.0 kHz
Frame rate                               : 31.250 FPS (1536 SPF)
Bit depth                                : 16 bits
Compression mode                         : Lossy
Delay relative to video                  : -4 ms
Stream size                              : 128 MiB (0%)
Title                                    : Dolby Digital Audio / 2.0 / 48 kHz / 192 kbps / Dolby Surround
Language                                 : Finnish
Service kind                             : Complete Main
Default                                  : No
Forced                                   : No

Audio #6
ID                                       : 7
Format                                   : AC-3
Format/Info                              : Audio Coding 3
Commercial name                          : Dolby Digital
Codec ID                                 : A_AC3
Duration                                 : 1 h 33 min
Bit rate mode                            : Constant
Bit rate                                 : 192 kb/s
Channel(s)                               : 2 channels
Channel layout                           : L R
Sampling rate                            : 48.0 kHz
Frame rate                               : 31.250 FPS (1536 SPF)
Bit depth                                : 16 bits
Compression mode                         : Lossy
Delay relative to video                  : -4 ms
Stream size                              : 128 MiB (0%)
Title                                    : Dolby Digital Audio / 2.0 / 48 kHz / 192 kbps / Dolby Surround
Language                                 : Korean
Service kind                             : Complete Main
Default                                  : No
Forced                                   : No

Audio #7
ID                                       : 8
Format                                   : AC-3
Format/Info                              : Audio Coding 3
Commercial name                          : Dolby Digital
Codec ID                                 : A_AC3
Duration                                 : 1 h 33 min
Bit rate mode                            : Constant
Bit rate                                 : 192 kb/s
Channel(s)                               : 2 channels
Channel layout                           : L R
Sampling rate                            : 48.0 kHz
Frame rate                               : 31.250 FPS (1536 SPF)
Bit depth                                : 16 bits
Compression mode                         : Lossy
Delay relative to video                  : -4 ms
Stream size                              : 128 MiB (0%)
Title                                    : Dolby Digital Audio / 2.0 / 48 kHz / 192 kbps / Dolby Surround
Language                                 : Chinese
Service kind                             : Complete Main
Default                                  : No
Forced                                   : No

Audio #8
ID                                       : 9
Format                                   : AC-3
Format/Info                              : Audio Coding 3
Commercial name                          : Dolby Digital
Codec ID                                 : A_AC3
Duration                                 : 1 h 33 min
Bit rate mode                            : Constant
Bit rate                                 : 192 kb/s
Channel(s)                               : 2 channels
Channel layout                           : L R
Sampling rate                            : 48.0 kHz
Frame rate                               : 31.250 FPS (1536 SPF)
Bit depth                                : 16 bits
Compression mode                         : Lossy
Delay relative to video                  : -4 ms
Stream size                              : 128 MiB (0%)
Title                                    : Dolby Digital Audio / 2.0 / 48 kHz / 192 kbps
Language                                 : Chinese
Service kind                             : Complete Main
Default                                  : No
Forced                                   : No

Text #1
ID                                       : 10
Format                                   : PGS
Muxing mode                              : zlib
Codec ID                                 : S_HDMV/PGS
Codec ID/Info                            : Picture based subtitle format used on BDs/HD-DVDs
Duration                                 : 1 h 31 min
Bit rate                                 : 14.7 kb/s
Count of elements                        : 2784
Stream size                              : 9.64 MiB (0%)
Language                                 : Japanese
Default                                  : No
Forced                                   : No

Text #2
ID                                       : 11
Format                                   : PGS
Muxing mode                              : zlib
Codec ID                                 : S_HDMV/PGS
Codec ID/Info                            : Picture based subtitle format used on BDs/HD-DVDs
Duration                                 : 1 h 33 min
Bit rate                                 : 8 877 b/s
Count of elements                        : 1814
Stream size                              : 5.91 MiB (0%)
Language                                 : English
Default                                  : No
Forced                                   : No

Text #3
ID                                       : 12
Format                                   : PGS
Muxing mode                              : zlib
Codec ID                                 : S_HDMV/PGS
Codec ID/Info                            : Picture based subtitle format used on BDs/HD-DVDs
Duration                                 : 1 h 33 min
Bit rate                                 : 8 665 b/s
Count of elements                        : 1663
Stream size                              : 5.77 MiB (0%)
Language                                 : French
Default                                  : No
Forced                                   : No

Text #4
ID                                       : 13
Format                                   : PGS
Muxing mode                              : zlib
Codec ID                                 : S_HDMV/PGS
Codec ID/Info                            : Picture based subtitle format used on BDs/HD-DVDs
Duration                                 : 1 h 28 min
Bit rate                                 : 11.2 kb/s
Count of elements                        : 1591
Stream size                              : 7.08 MiB (0%)
Language                                 : German
Default                                  : No
Forced                                   : No

Text #5
ID                                       : 14
Format                                   : PGS
Muxing mode                              : zlib
Codec ID                                 : S_HDMV/PGS
Codec ID/Info                            : Picture based subtitle format used on BDs/HD-DVDs
Duration                                 : 1 h 33 min
Bit rate                                 : 7 989 b/s
Count of elements                        : 2229
Stream size                              : 5.32 MiB (0%)
Language                                 : Korean
Default                                  : No
Forced                                   : No

Text #6
ID                                       : 15
Format                                   : PGS
Muxing mode                              : zlib
Codec ID                                 : S_HDMV/PGS
Codec ID/Info                            : Picture based subtitle format used on BDs/HD-DVDs
Duration                                 : 1 h 33 min
Bit rate                                 : 13.7 kb/s
Count of elements                        : 2134
Stream size                              : 9.12 MiB (0%)
Language                                 : Chinese
Default                                  : No
Forced                                   : No

Text #7
ID                                       : 16
Format                                   : PGS
Muxing mode                              : zlib
Codec ID                                 : S_HDMV/PGS
Codec ID/Info                            : Picture based subtitle format used on BDs/HD-DVDs
Duration                                 : 1 h 32 min
Bit rate                                 : 12.3 kb/s
Count of elements                        : 2167
Stream size                              : 8.17 MiB (0%)
Language                                 : Chinese
Default                                  : No
Forced                                   : No

Menu
00:00:00.000                             : en:00:00:00.000
00:05:43.176                             : en:00:05:43.176
00:09:16.598                             : en:00:09:16.598
00:15:33.182                             : en:00:15:33.182
00:21:43.552                             : en:00:21:43.552
00:27:14.925                             : en:00:27:14.925
00:31:34.351                             : en:00:31:34.351
00:36:12.128                             : en:00:36:12.128
00:41:49.382                             : en:00:41:49.382
00:44:57.570                             : en:00:44:57.570
00:49:01.605                             : en:00:49:01.605
00:54:11.290                             : en:00:54:11.290
00:58:46.940                             : en:00:58:46.940
01:04:35.705                             : en:01:04:35.705
01:08:55.965                             : en:01:08:55.965
01:14:06.901                             : en:01:14:06.901
01:19:09.161                             : en:01:19:09.161
01:24:18.512                             : en:01:24:18.512
01:29:23.692                             : en:01:29:23.692

.........................................................................................................................................


Files:

Porco Rosso (1992) 1080p BDRip x265 10bit FLAC 2.0 - Goki
  • Porco Rosso (1992) 1080p BDRip x265 10bit FLAC 2.0 - Goki.mkv (10.3 GB)
  • Porco Rosso (1992) 1080p BDRip x265 10bit FLAC 2.0 - Goki.nfo (6.2 KB)
  • Porco Rosso (1992) 1080p BDRip x265 10bit FLAC 2.0 - Goki-banner.jpg (168.4 KB)
  • Porco Rosso (1992) 1080p BDRip x265 10bit FLAC 2.0 - Goki-clearart.png (426.3 KB)
  • Porco Rosso (1992) 1080p BDRip x265 10bit FLAC 2.0 - Goki-clearlogo.png (71.9 KB)
  • Porco Rosso (1992) 1080p BDRip x265 10bit FLAC 2.0 - Goki-disc.png (270.0 KB)
  • Porco Rosso (1992) 1080p BDRip x265 10bit FLAC 2.0 - Goki-fanart.jpg (685.1 KB)
  • Porco Rosso (1992) 1080p BDRip x265 10bit FLAC 2.0 - Goki-keyart.jpg (172.9 KB)
  • Porco Rosso (1992) 1080p BDRip x265 10bit FLAC 2.0 - Goki-logo.png (71.9 KB)
  • Porco Rosso (1992) 1080p BDRip x265 10bit FLAC 2.0 - Goki-poster.jpg (52.1 KB)
  • Porco Rosso (1992) 1080p BDRip x265 10bit FLAC 2.0 - Goki-thumb.jpg (136.0 KB)

There are currently no comments. Feel free to leave one :)

Code:

  • udp://tracker.coppersurfer.tk:6969/announce
  • udp://tracker.opentrackr.org:1337/announce
  • udp://tracker.torrent.eu.org:451/announce
  • udp://tracker.internetwarriors.net:1337/announce
  • http://tracker.opentrackr.org:1337/announce
  • udp://denis.stalker.upeer.me:6969/announce
  • udp://tracker.coppersurfer.tk:6969
  • udp://tracker.internetwarriors.net:1337
  • udp://9.rarbg.me:2720/announce
  • udp://explodie.org:6969/announce
  • http://tracker3.itzmx.com:6961/announce
  • udp://tracker.cyberia.is:6969/announce
  • udp://thetracker.org/announce
  • udp://open.demonii.si:1337/announce