It.Chapter.Two.2019.720p.HC.HDRip.X264.AC3.LLG

  • Category Movies
  • Type HD
  • Language English
  • Total size 2.2 GB
  • Uploaded By LifeLongg
  • Downloads 1917
  • Last checked 4 days ago
  • Date uploaded 1 week ago
  • Seeders 57
  • Leechers 16

It Chapter Two

Horror

27 years after overcoming the malevolent supernatural entity Pennywise, the former members of the Losers' Club, who have grown up and moved away from Derry, are brought back together by a devastating phone call.

Infohash : 2CA0F0FAA3594BEA0D452C3A9DFB89A3B240BC56

Quote:





******************************Thumbnail:**********************




******************************Screenshots:********************

Screenshot 1

Screenshot 2

Screenshot 3

Screenshot 4

Screenshot 5

Screenshot 6

Screenshot 7

Screenshot 8

Screenshot 9

Screenshot 0

***************************************************************
General
It.Chapter.Two.2019.720p.HC.HDRip.X264.AC3.LLG.mp4
Format : MPEG-4
Format profile : Base Media
Codec ID : isom (isom/iso2/avc1/mp41)
File size : 2.21 GiB
Duration : 2 h 44 min
Overall bit rate mode : Variable
Overall bit rate : 1 922 kb/s
Movie name : EVO

Video
ID : 1
Format : AVC
Format/Info : Advanced Video Codec
Format profile : [email protected]
Format settings : CABAC / 1 Ref Frames
Format settings, CABAC : Yes
Format settings, Reference frames : 1 frame
Codec ID : avc1
Codec ID/Info : Advanced Video Coding
Duration : 2 h 44 min
Bit rate mode : Variable
Bit rate : 1 534 kb/s
Maximum bit rate : 4 500 kb/s
Width : 1 280 pixels
Height : 532 pixels
Display aspect ratio : 2.40:1
Original display aspect ratio : 2.40:1
Frame rate mode : Constant
Frame rate : 23.976 (23976/1000) FPS
Original frame rate : 23.976 (24000/1001) FPS
Color space : YUV
Chroma subsampling : 4:2:0
Bit depth : 8 bits
Scan type : Progressive
Bits/(Pixel*Frame) : 0.094
Stream size : 1.76 GiB (80%)

Audio
ID : 2
Format : AC-3
Format/Info : Audio Coding 3
Commercial name : Dolby Digital
Codec ID : ac-3
Duration : 2 h 44 min
Bit rate mode : Constant
Bit rate : 384 kb/s
Channel(s) : 2 channels
Channel layout : L R
Sampling rate : 48.0 kHz
Frame rate : 31.250 FPS (1536 SPF)
Bit depth : 16 bits
Compression mode : Lossy
Stream size : 452 MiB (20%)
Title : Stereo
Language : English
Service kind : Complete Main
Default : Yes


***************************************************************



Files:

It.Chapter.Two.2019.720p.HC.HDRip.X264.AC3.LLG
  • Sample.ts (9.6 MB)
  • It.Chapter.Two.2019.720p.HC.HDRip.X264.AC3.LLG.mp4 (2.2 GB)

There are currently no comments. Feel free to leave one :)

Code:

  • udp://tracker.openbittorrent.com:80/announce
  • udp://tracker.opentrackr.org:1337/announce
  • udp://exodus.desync.com:6969/announce
  • udp://tracker.coppersurfer.tk:6969/announce
  • udp://tracker.iamhansen.xyz:2000/announce
  • udp://tracker.opentrackr.org:1337/announce
  • udp://open.demonii.si:1337/announce
  • udp://tracker.pirateparty.gr:6969/announce