3 from Hell (2019) (1080p BluRay x265 HEVC 10bit TrueHD 7.1 Qman)...

  • Category Movies
  • Type HEVC/x265
  • Language English
  • Total size 9.9 GB
  • Uploaded By UTRCorp
  • Downloads 234
  • Last checked 1 day ago
  • Date uploaded 6 days ago
  • Seeders 4
  • Leechers 0

3 from Hell

Horror

After barely surviving a furious shootout with the police, Baby Firefly, Otis Driftwood and Captain Spaulding are behind bars. But pure evil cannot be contained. Teaming up with Otis’ half-brother Wilson, the demented Firefly clan escape to unleash a whole new wave of murder, madness and mayhem.

Infohash : 44AE0E19D97A60D450690D9F3AC05E3B1B4A37C5
















Media Information

Media Information

Code:

General
Format : Matroska
Format version : Version 4 / Version 2
File size : 9.87 GiB
Duration : 1 h 55 min
Overall bit rate mode : Variable
Overall bit rate : 12.2 Mb/s
Encoded date : UTC 2019-10-08 14:57:21
Writing application : mkvmerge v36.0.0 ('Is That Jazz?') 64-bit
Writing library : libebml v1.3.9 + libmatroska v1.5.2

Video
ID : 1
Format : HEVC
Format/Info : High Efficiency Video Coding
Format profile : Main [email protected]@Main
Codec ID : V_MPEGH/ISO/HEVC
Duration : 1 h 55 min
Bit rate : 9 690 kb/s
Width : 1 920 pixels
Height : 1 040 pixels
Display aspect ratio : 1.85:1
Frame rate mode : Constant
Frame rate : 23.976 (24000/1001) FPS
Color space : YUV
Chroma subsampling : 4:2:0
Bit depth : 10 bits
Bits/(Pixel*Frame) : 0.202
Stream size : 7.84 GiB (79%)
Writing library : x265 3.1+8-21db162c8622:[Windows][MSVC 1921][64 bit] 10bit
Encoding settings : cpuid=1111039 / frame-threads=4 / numa-pools=16 / wpp / no-pmode / no-pme / no-psnr / no-ssim / log-level=2 / input-csp=1 / input-res=1920x1040 / interlace=0 / total-frames=166584 / level-idc=0 / high-tier=1 / uhd-bd=0 / ref=4 / no-allow-non-conformance / no-repeat-headers / annexb / no-aud / no-hrd / info / hash=0 / no-temporal-layers / open-gop / min-keyint=23 / keyint=250 / gop-lookahead=0 / bframes=8 / b-adapt=2 / b-pyramid / bframe-bias=0 / rc-lookahead=80 / lookahead-slices=4 / scenecut=40 / radl=0 / no-splice / no-intra-refresh / ctu=64 / min-cu-size=8 / no-rect / no-amp / max-tu-size=32 / tu-inter-depth=1 / tu-intra-depth=1 / limit-tu=0 / rdoq-level=2 / dynamic-rd=0.00 / no-ssim-rd / signhide / no-tskip / nr-intra=0 / nr-inter=0 / no-constrained-intra / no-strong-intra-smoothing / max-merge=3 / limit-refs=3 / limit-modes / me=3 / subme=5 / merange=57 / temporal-mvp / no-hme / weightp / no-weightb / no-analyze-src-pics / deblock=-2:-2 / no-sao / no-sao-non-deblock / rd=4 / no-early-skip / no-rskip / no-fast-intra / no-tskip-fast / no-cu-lossless / no-b-intra / no-splitrd-skip / rdpenalty=0 / psy-rd=1.00 / psy-rdoq=10.00 / no-rd-refine / no-lossless / cbqpoffs=-3 / crqpoffs=-3 / rc=crf / crf=21.0 / qcomp=0.55 / qpstep=4 / stats-write=0 / stats-read=0 / ipratio=1.40 / pbratio=1.30 / aq-mode=2 / aq-strength=1.00 / cutree / zone-count=0 / no-strict-cbr / qg-size=32 / no-rc-grain / qpmax=69 / qpmin=0 / no-const-vbv / sar=0 / overscan=0 / videoformat=5 / range=0 / colorprim=2 / transfer=2 / colormatrix=2 / chromaloc=0 / display-window=0cll=0,0 / min-luma=0 / max-luma=1023 / log2-max-poc-lsb=8 / vui-timing-info / vui-hrd-info / slices=1 / no-opt-qp-pps / no-opt-ref-list-length-pps / no-multi-pass-opt-rps / scenecut-bias=0.05 / no-opt-cu-delta-qp / no-aq-motion / no-hdr / no-hdr-opt / no-dhdr10-opt / no-idr-recovery-sei / analysis-reuse-level=5 / scale-factor=0 / refine-intra=0 / refine-inter=0 / refine-mv=0 / refine-ctu-distortion=0 / no-limit-sao / ctu-info=0 / no-lowpass-dct / refine-analysis-type=0 / copy-pic=1 / max-ausize-factor=1.0 / no-dynamic-refine / no-single-sei / no-hevc-aq / no-svt / no-field / qp-adaptation-range=1.00
Language : English
Default : Yes
Forced : No

Audio #1
ID : 2
Format : TrueHD
Codec ID : A_TRUEHD
Duration : 1 h 55 min
Bit rate mode : Variable
Bit rate : 2 248 kb/s
Maximum bit rate : 4 176 kb/s
Channel(s) : 8 channels
Channel positions : Front: L C R, Side: L R, Back: L R, LFE
Sampling rate : 48.0 kHz
Frame rate : 1 200.000 FPS (40 spf)
Compression mode : Lossless
Stream size : 1.82 GiB (18%)
Language : English
Default : Yes
Forced : No

Audio #2
ID : 3
Format : AC-3
Format/Info : Audio Coding 3
Mode extension : CM (complete main)
Format settings, Endianness : Big
Codec ID : A_AC3
Duration : 1 h 55 min
Bit rate mode : Constant
Bit rate : 192 kb/s
Channel(s) : 2 channels
Channel positions : Front: L R
Sampling rate : 48.0 kHz
Frame rate : 31.250 FPS (1536 spf)
Bit depth : 16 bits
Compression mode : Lossy
Stream size : 159 MiB (2%)
Language : English
Default : No
Forced : No

Subtitle
ID : 4
Format : VobSub
Muxing mode : zlib
Codec ID : S_VOBSUB
Codec ID/Info : Picture based subtitle format used on DVDs
Duration : 1 h 52 min
Bit rate : 11.5 kb/s
Count of elements : 1612
Stream size : 9.27 MiB (0%)
Language : English
Default : Yes
Forced : No

Menu
00:00:00.000 : en:Chapter 01
00:06:18.920 : en:Chapter 02
00:13:16.838 : en:Chapter 03
00:21:29.538 : en:Chapter 04
00:28:25.287 : en:Chapter 05
00:33:30.050 : en:Chapter 06
00:42:12.739 : en:Chapter 07
00:48:23.150 : en:Chapter 08
00:55:16.188 : en:Chapter 09
01:05:21.167 : en:Chapter 10
01:10:13.835 : en:Chapter 11
01:21:00.939 : en:Chapter 12
01:25:16.111 : en:Chapter 13
01:31:16.262 : en:Chapter 14
01:39:35.344 : en:Chapter 15
01:46:39.476 : en:Chapter 16



Source Information

Code:

Release:
3.from.Hell.2019.Unrated.UHD.BluRay.2160p.TrueHD.7.1.HEVC.REMUX-FraMeSToR 62.0GB




Files:

3 from Hell (2019) (1080p BluRay x265 HEVC 10bit TrueHD 7.1 Qman) [UTR]
  • 3.from.Hell.(2019).1080p.BluRay.10-bit.x265.TrueHD.7.1 Qman[UTR].mkv (9.9 GB)

Comments

Code:

  • udp://9.rarbg.com:2710/announce
  • udp://tracker.opentrackr.org:1337/announce
  • udp://tracker.torrent.eu.org:451/announce
  • udp://tracker.leechers-paradise.org:6969/announce
  • udp://tracker.coppersurfer.tk:6969/announce