Sex Education Season 2 NF 720p WEB-DL H264 Esubs - By Movieaio

  • Category TV
  • Type HD
  • Language English
  • Total size 4.5 GB
  • Uploaded By Mansimran
  • Downloads 17541
  • Last checked 3 weeks ago
  • Date uploaded 1 month ago
  • Seeders 150
  • Leechers 49

Infohash : 119789626AA4DCB2057890DC7DA79039892B8F23

Quote:

Sex Education Season 2 NF 720p WEB-DL H264 Esubs - By Movieaio





Telegram - Movieaio








Quote:

Poster :




Quote:

Screenshots :









Thanks for the download

Dont Forget to seed As much you Download

- Movieaio



Code:

General
Unique ID : 146315204277563340573417507065295534035 (0x6E134887E7683819D63FC6F9307BF7D3)
Complete name : [Telegram - Movieaio] Sex Education S02E01 NF 720p WEB-DL H264 Esubs.mkv
Format : Matroska
Format version : Version 4
File size : 505 MiB
Duration : 51 min 16 s
Overall bit rate : 1 376 kb/s
Movie name : Telegram | Movieaio
Encoded date : UTC 2020-01-17 10:09:41
Writing application : mkvmerge v42.0.0 ('Overtime') 64-bit
Writing library : libebml v1.3.10 + libmatroska v1.5.2 / Lavf58.29.100

Video
ID : 1
Format : AVC
Format/Info : Advanced Video Codec
Format profile : [email protected]
Format settings : CABAC / 4 Ref Frames
Format settings, CABAC : Yes
Format settings, Reference frames : 4 frames
Codec ID : V_MPEG4/ISO/AVC
Duration : 51 min 16 s
Bit rate : 1 333 kb/s
Width : 1 274 pixels
Height : 720 pixels
Display aspect ratio : 16:9
Frame rate mode : Constant
Frame rate : 25.000 FPS
Color space : YUV
Chroma subsampling : 4:2:0
Bit depth : 8 bits
Scan type : Progressive
Bits/(Pixel*Frame) : 0.058
Stream size : 469 MiB (93%)
Title : Telegram | Movieaio
Writing library : x264 core 157
Language : English
Default : Yes
Forced : No

Audio
ID : 2
Format : AAC LC
Format/Info : Advanced Audio Codec Low Complexity
Codec ID : A_AAC-2
Duration : 51 min 16 s
Bit rate : 96.0 kb/s
Channel(s) : 1 channel
Channel layout : C
Sampling rate : 44.1 kHz
Frame rate : 43.066 FPS (1024 SPF)
Compression mode : Lossy
Stream size : 35.3 MiB (7%)
Title : Telegram | Movieaio
Writing library : Lavc58.54.100 libfdk_aac
Language : English
Default : Yes
Forced : No

Text
ID : 3
Format : ASS
Codec ID : S_TEXT/ASS
Codec ID/Info : Advanced Sub Station Alpha
Duration : 50 min 10 s
Bit rate : 132 b/s
Count of elements : 884
Compression mode : Lossless
Stream size : 48.6 KiB (0%)
Title : Telegram | Movieaio
Writing library : Lavc58.54.100 ssa
Language : English
Default : No
Forced : No

Files:

[Telegram - Movieaio] Sex Education Season 2 NF 720p WEB-DL H264 Esubs
  • Team Movieaio Telegram.txt (0.2 KB)
  • [Telegram - Movieaio] Sex Education S02E07 NF 720p WEB-DL H264 Esubs.mkv (490.1 MB)
  • [Telegram - Movieaio] Sex Education S02E03 NF 720p WEB-DL H264 Esubs.mkv (502.2 MB)
  • [Telegram - Movieaio] Sex Education S02E01 NF 720p WEB-DL H264 Esubs.mkv (504.8 MB)
  • [Telegram - Movieaio] Sex Education S02E02 NF 720p WEB-DL H264 Esubs.mkv (516.2 MB)
  • [Telegram - Movieaio] Sex Education S02E06 NF 720p WEB-DL H264 Esubs.mkv (525.7 MB)
  • [Telegram - Movieaio] Sex Education S02E05 NF 720p WEB-DL H264 Esubs.mkv (657.6 MB)
  • [Telegram - Movieaio] Sex Education S02E08 NF 720p WEB-DL H264 Esubs.mkv (675.0 MB)
  • [Telegram - Movieaio] Sex Education S02E04 NF 720p WEB-DL H264 Esubs.mkv (693.3 MB)

Comments

Code:

  • udp://tracker.opentrackr.org:1337/announce
  • udp://p4p.arenabg.com:1337/announce
  • udp://denis.stalker.upeer.me:6969/announce
  • https://tracker.vectahosting.eu:2053/announce
  • udp://tracker.sbsub.com:2710/announce
  • https://tracker.opentracker.se:443/announce
  • https://tracker.no-dmca.ninja:2087/announce
  • https://tracker.fr.eu.org:8443/announce
  • https://tracker.heaterdown.eu:443/announce
  • https://tracker.sloppyta.co:443/announce
  • udp://open.stealth.si:80/announce
  • udp://ipv4.tracker.harry.lu:80/announce
  • udp://tracker.torrent.eu.org:451/announce
  • udp://tracker.uw0.xyz:6969/announce