Jumanji.The.Next.Level.2019.HC.HDRip.XviD.B4ND1T69

  • Category Movies
  • Type Divx/Xvid
  • Language English
  • Total size 1.5 GB
  • Uploaded By B4ND1T69
  • Downloads 2330
  • Last checked 6 days ago
  • Date uploaded 1 week ago
  • Seeders 112
  • Leechers 19

Infohash : 7D83FEAACFE259F1E8AF0D21FFFFE7B45D97A765

Jumanji.The.Next.Level.2019.HC.HDRip.XviD.B4ND1T69



Director: Jake Kasdan
Writers: Jake Kasdan, Jeff Pinkner
Stars: Dwayne Johnson, Jack Black, Kevin Hart

Plot/Story:
In Jumanji: The Next Level, the gang is back but the game has changed. As they return to rescue one of their own, the players will have to brave parts unknown from arid deserts to snowy mountains, to escape the world's most dangerous game.

General
Complete name : Jumanji.The.Next.Level.2019.HC.HDRip.XviD.B4ND1T69.avi
Format : AVI
Format/Info : Audio Video Interleave
File size : 1.50 GiB
Duration : 2 h 3 min
Overall bit rate : 1 742 kb/s
Subtitles : Yes...Included(HI)

Video
ID : 0
Format : MPEG-4 Visual
Format profile : Advanced [email protected]
Format settings, BVOP : 2
Format settings, QPel : No
Format settings, GMC : No warppoints
Format settings, Matrix : Default (H.263)
Codec ID : XVID
Codec ID/Hint : XviD
Duration : 2 h 3 min
Bit rate : 1 600 kb/s
Width : 720 pixels
Height : 304 pixels
Display aspect ratio : 2.35:1
Frame rate : 29.970 (30000/1001) FPS
Color space : YUV
Chroma subsampling : 4:2:0
Bit depth : 8 bits
Scan type : Progressive
Compression mode : Lossy
Bits/(Pixel*Frame) : 0.244
Stream size : 1.38 GiB (92%)
Writing library : XviD 64

Audio
ID : 1
Format : MPEG Audio
Format version : Version 1
Format profile : Layer 3
Codec ID : 55
Codec ID/Hint : MP3
Duration : 2 h 3 min
Bit rate mode : Constant
Bit rate : 128 kb/s
Channel(s) : 2 channels
Sampling rate : 48.0 kHz
Compression mode : Lossy
Stream size : 113 MiB (7%)
Alignment : Aligned on interleaves
Interleave, duration : 24 ms (0.72 video frame)

Screenshots:

https://i.imgur.com/2rXOQJV.png
https://i.imgur.com/K8mvDOZ.png
https://i.imgur.com/pvFqcT7.png
https://i.imgur.com/Q0SF7gD.png
https://i.imgur.com/UVwqilF.png
https://i.imgur.com/0qeAfv2.png
https://i.imgur.com/HDV4UFC.png
https://i.imgur.com/5RyXSXm.png









Please Seed For As Long As Possible
Or At Least 1:1 Ratio...Thanks
Enjoy Peeps

Files:

Jumanji.The.Next.Level.2019.HC.HDRip.XviD.B4ND1T69
  • 1337x text file.txt (0.1 KB)
  • Downloaded from katcr.co.txt (0.1 KB)
  • Jumanji.The.Next.Level.2019.HC.HDRip.XviD.B4ND1T69.srt (144.6 KB)
  • Jumanji.The.Next.Level.2019.HC.HDRip.XviD.B4ND1T69.avi (1.5 GB)

Comments

Code:

  • udp://tracker.coppersurfer.tk:6969/announce
  • udp://tracker.pirateparty.gr:6969/announce
  • udp://tracker.opentrackr.org:1337/announce
  • udp://tracker.tiny-vps.com:6969/announce
  • udp://open.demonii.si:1337/announce
  • udp://tracker.torrent.eu.org:451/announce
  • udp://tracker.leechers-paradise.org:6969/announce