Dabangg 3 (2019) Hindi 720p WEB Rip x264 AAC. Eng Sub

  • Category Movies
  • Type Bollywood
  • Language Hindi
  • Total size 1.1 GB
  • Uploaded By krishh1337
  • Downloads 1416
  • Last checked 4 days ago
  • Date uploaded 1 week ago
  • Seeders 76
  • Leechers 25

Dabangg 3

Action

Third installment of the Dabanng film series.

Infohash : FB6361775D71B915F16C1047DAB9BE4286ABD1FE



Dabangg 3 (2019):
2h 30min | Action, Comedy | 20 December 2019 (USA)

Chulbul Pandey encounters an enemy from his past, and his origin story as the fearless cop unfolds.

Director: Prabhu Deva (as Prabhudheva)
Writers: Salman Khan (story), Salman Khan (screenplay)

Stars: Salman Khan, Sudeep, Sonakshi Sinha.

Format : Matroska
Format version : Version 4
File size : 1.07 GiB
Duration : 2 h 28 min
Overall bit rate : 1 030 kb/s

Video
ID : 1
Format : AVC
Format/Info : Advanced Video Codec
Format profile : [email protected]
Format settings : CABAC / 4 Ref Frames
Format settings, CABAC : Yes
Format settings, Reference : 4 frames
Codec ID : V_MPEG4/ISO/AVC
Duration : 2 h 28 min
Bit rate : 890 kb/s
Width : 1 262 pixels
Height : 526 pixels
Display aspect ratio : 2.40:1
Frame rate mode : Constant
Frame rate : 24.000 FPS
Color space : YUV
Chroma subsampling : 4:2:0
Bit depth : 8 bits
Scan type : Progressive
Bits/(Pixel*Frame) : 0.056
Stream size : 932 MiB (85%)
Writing library : x264 core

Audio
ID : 2
Format : AAC LC
Format/Info : Advanced Audio Codec Low Complexity
Codec ID : A_AAC-2
Duration : 2 h 28 min
Bit rate : 149 kb/s
Channel(s) : 2 channels
Channel layout : L R
Sampling rate : 44.1 kHz
Frame rate : 43.066 FPS (1024 SPF)
Compression mode : Lossy
Stream size : 158 MiB (14%)
Language : Hindi
Default : Yes
Forced : No

Text
ID : 3
Format : UTF-8
Codec ID : S_TEXT/UTF8
Codec ID/Info : UTF-8 Plain Text
Duration : 2 h 21 min
Bit rate : 41 b/s
Count of elements : 1611
Stream size : 43.3 KiB (0%)
Language : English
Default : Yes
Forced : No

Files:

  • Dabangg 3 (2019) Hindi 720p WEB Rip x264 AAC. Eng Sub.mkv (1.1 GB)

There are currently no comments. Feel free to leave one :)

Code:

  • udp://tracker.coppersurfer.tk:6969/announce
  • udp://tracker.pirateparty.gr:6969/announce
  • udp://tracker.tiny-vps.com:6969/announce
  • udp://open.demonii.si:1337/announce
  • udp://ipv4.tracker.harry.lu:80/announce
  • udp://denis.stalker.upeer.me:6969/announce
  • http://t.nyaatracker.com:80/announce
  • udp://tracker.opentrackr.org:1337/announce
  • udp://open.stealth.si:80/announce
  • udp://tracker.internetwarriors.net:1337/announce
  • udp://tracker.leechers-paradise.org:6969/announce
  • udp://9.rarbg.to:2800/announce
  • http://tracker3.itzmx.com:6961/announce
  • http://tracker1.itzmx.com:8080/announce
  • udp://tracker.open-internet.nl:6969/announce
  • http://explodie.org:6969/announce
  • http://tracker.opentrackr.org:1337/announce
  • udp://tw.opentracker.ga:36920/announce
  • udp://bt.xxx-tracker.com:2710/announce
  • udp://tracker.vanitycore.co:6969/announce
  • http://tracker.city9x.com:2710/announce